Watch WWE Swerve City Podcast E02 Johnny Gargano

 WWE Swerve City Podcast E02 Johnny Gargano and Candice LeRae 1080p DX-TV

Watch WWE

 

 Watch WWE
 


 

 

Watch WWE Swerve City Podcast E02 Johnny Gargano

 

 

 

 

Complete name : WWE.Swerve.City.Podcast.E02.Johnny.Gargano.and.Candice.LeRae.1080p.WEB.h264-HEEL.mp4
Format : MPEG-4
Format profile : Base Media
Codec ID : isom
File size : 4.01 GiB
Duration : 1 h 12 min
Overall bit rate : 7 973 kb/s
Writing application : Lavf58.32

Watch WWE

Video
ID : 1
Format : AVC
Duration : 1 h 12 min
Bit rate : 7 808 kb/s
Width : 1 920 pixels
Height : 1 080 pixels
Display aspect ratio : 16:9
Frame rate mode : Constant
Frame rate : 30.000 FPS
Color space : YUV
Chroma subsampling : 4:2:0
Bit depth : 8 bits
Scan type : Progressive
Bits/(Pixel*Frame) : 0.126
Stream size : 3.91 GiB (97%)

Watch WWE

Audio
ID : 2
Format : AAC LC
Format/Info : Advanced Audio
Codec ID : mp4a-40-2
Duration : 1 h 12 min
Bit rate mode : Constant
Bit rate : 192 kb/s
Channel(s) : 2 channels
Channel layout : L R
Sampling rate : 48.0 kHz
Frame rate : 46.875 FPS
Compression mode : Lossy
Stream size : 99.4 MiB (2%)
Default : Yes
Alternate group : 1

Watch WWE

The news was revealed by Scott and the Swerve City podcast team: “Breaking News.

The Swerve City Team would like to announce us joining the @wwenetwork October 23rd! We will debut with our first guest @dmcintyrewwe.

We are more than excited to give you guys new guests, new content,

a bigger budget y’all! @wwe @wwepodcasts Do not forget to subscribe to our youtube channel 

Scott and Monteasy Scott are the hosts of the Swerve City podcast.

 

Scott unsuccessfully challenged for Santos Escobar’s NXT Cruiserweight Championship at NXT TakeOver 31 earlier this month.

On NXT this week, Scott backed up Ashante “Thee” Adonis,

and Jake Atlas when they were about to be attacked by Legado del Fantasma (Escobar, Raul Mendoza, and Joaquin Wilde).

It was also announced this week that Sam Roberts is getting a WWE Network series.

Notsam Wrestling will premiere on the WWE Network at 10 a.m.

Eastern time next Thursday and will be a weekly series.

 

Watch WWE Swerve City Podcast E02 Johnny Gargano

 

 

 

 

Watch online

 

 

 

 

 

Server 1

 

 

 

 

Watch WWE

 

 

 

 

Server-2

 

 

 

watch now

 

 

 

 

Uploaded By Site DX-TV.com

 

 

 

 

Download Free Links with normal and high Speed [ more 14 hosts ]  

 

 

 

http://shrt10.com/LSmPaBYJN
http://shrt10.com/kNv63B26
http://shrt10.com/UFGmiK1H3
http://shrt10.com/G5qpvHztI
http://shrt10.com/Guozb
http://shrt10.com/lhP08

 

 

 

Download Links with premium High Speed   

 

 

 

 

dropapk.to

 

 

 

nitroflare.com

 

 

 

rapidgator.net

 

 

 

uploaded.net

 

 

 

dx-tv.com

 

urlfree.net

Leave a Reply

Your email address will not be published. Required fields are marked *

This site uses Akismet to reduce spam. Learn how your comment data is processed.