Watch WWE SummerSlam 2019 PPV 1080p

 

Free Watch WWE SummerSlam 2019 PPV 1080p WEB HEEL DX-TV Full Show online

 

 

 

 

 

 

 

 

dx-tv.com

 

 

 

shrt10.com

 

 

 

 

 

 

 

 

 

 

Watch WWE SummerSlam 2019 PPV 1080p

 

 

 

 

 

 

Shrt10.com

now we have new very high rate

we are paying with up to $25/1000 visits.​

you can start now

Minimum payment $5

  • you can earn up to 25 $ / 1000 unique views.

  • Payout via PayPal, Webmoney, BitCoins.

  • Real time stats, updated every 15 minute

  • You earn for all countries traffic

  • Payments max weekly 

  • Advanced statistics

 

 

 

 

 

 

 

 

Watch WWE SummerSlam 2019 PPV 1080p

 

 

 

 

 

Complete name : WWE.SummerSlam.2019.PPV.VOD.Version.1080p.WEB.h264-HEEL.mp4
Format : MPEG-4
Format profile : Base Media
Codec ID : isom (isom/iso2/avc1/mp41)
File size : 13.8 GiB
Duration : 3 h 27 min
Overall bit rate mode : Variable
Overall bit rate : 9 537 kb/s
Writing application : Lavf58.23.101

Video
ID : 1
Format : AVC
Format/Info : Advanced Video Codec
Codec ID/Info : Advanced Video Coding
Duration : 3 h 27 min
Bit rate : 7 746 kb/s
Width : 1 920 pixels
Height : 1 080 pixels
Display aspect ratio : 16:9
Frame rate mode : Constant
Frame rate : 30.000 FPS
Color space : YUV
Chroma subsampling : 4:2:0
Bit depth : 8 bits
Scan type : Progressive
Bits/(Pixel*Frame) : 0.125
Stream size : 11.2 GiB (81%)
Codec configuration box : avcC

Audio #1
ID : 2
Format : AAC LC
Format/Info : Advanced Audio Codec Low Complexity
Codec ID : mp4a-40-2
Duration : 3 h 27 min
Bit rate mode : Constant
Bit rate : 192 kb/s
Channel(s) : 2 channels
Channel layout : L R
Sampling rate : 48.0 kHz
Frame rate : 46.875 FPS (1024 SPF)
Compression mode : Lossy
Stream size : 289 MiB (2%)
Default : Yes
Alternate group : 1

 

 

 

 

 

 

Watch online

 

 

Waiting finish converting video

 

 

Server 1

 

 

 

 

 

 

 

 

 

 

 

 

 

 

 

Server 2

 

 

 

 

 

 

 

 

 

 

 

 

 

 

Uploaded By Site DX-TV.com

 

 

 

Downloading Links

 

 

 

 

 

nitroflare.com

 

 

nitroflare.com

 

 

nitroflare.com

 

 

 

 

rapidgator.net

 

 

rapidgator.net

 

 

rapidgator.net

 

 

 

 

uploaded.net

 

 

uploaded.net

 

 

uploaded.net

 

 

 

Leave a Reply

Your email address will not be published. Required fields are marked *

16 + seven =