Watch WWE SummerSlam 2018 PPV HDTV Star

Watch WWE SummerSlam 2018 PPV HDTV Star

 

 

 

 


 

 

dx-tv.com

 

 

 

 

Complete name : WWE.SummerSlam.2018.PPV.HDTV.x264-Star.mp4
Format : MPEG-4
File size : 2.48 GiB
Duration : 4 h 1 min
Overall bit rate mode : Variable
Overall bit rate : 1 467 kb/s
Encoded date : UTC 2018-08-20 03:54:13
Tagged date : UTC 2018-08-20 03:54:13

Video
ID : 1
Format : AVC
Format/Info : Advanced Video Codec
Codec ID : avc1
Codec ID/Info : Advanced Video Coding
Duration : 4 h 1 min
Bit rate : 1 300 kb/s
Width : 712 pixels
Height : 400 pixels
Display aspect ratio : 16:9
Frame rate mode : Constant
Color space : YUV
Chroma subsampling : 4:2:0
Bit depth : 8 bits
Scan type : Progressive
Bits/(Pixel*Frame) : 0.152
Stream size : 2.19 GiB (89%)
Encoded date : UTC 2018-08-20 03:54:13
Tagged date : UTC 2018-08-20 03:54:13
Color range : Limited
Color primaries : BT.601 NTSC
Transfer characteristics : BT.709
Matrix coefficients : BT.601

Audio
ID : 2
Format : AAC
Format/Info : Advanced Audio Codec
Format profile : LC
Codec ID : mp4a-40-2
Duration : 4 h 1 min
Bit rate mode : Variable
Bit rate : 160 kb/s
Channel(s) : 2 channels
Channel positions : Front: L R
Sampling rate : 48.0 kHz
Frame rate : 46.875 FPS (1024 SPF)
Compression mode : Lossy
Stream size : 277 MiB (11%)
Title : Stereo / Stereo
Default : Yes
Alternate group : 1
Encoded date : UTC 2018-08-20 03:54:13
Tagged date : UTC 2018-08-20 03:54:13

 

 

 

 

Watch WWE SummerSlam 2018 PPV HDTV Star

 

 

 

 

Watch online

 

 

Waiting finish converting video

 

 

Server 1

 

 

 

 

 

 

 

 

 

 

 

 

 

 

 

Server 2

 

 

 

 

 

 

 


 

 

 

 

 

Uploaded By Site DX-TV.com

 

 

 

open rar file to see this password

 

 

 

 

The password : DX-TV.com

 

 

 

 

 

 

Uploaded.net + rapidgator.net

 

 

 

 

 

 

http://shrt10.com/7SPfP

 

 

 

 

 

http://shrt10.com/uliYVRM

 

 

 

 

 

 

Watch WWE SummerSlam 2018 PPV HDTV Star