Watch WWE Story Time S03E04 New Beginnings 720p WEB HEEL

Watch WWE Story Time S03E04 New Beginnings 720p WEB HEEL

 

 

 

 


 

 

dx-tv.com

 

 

 

 

 

Complete name : WWE.Story.Time.S03E04.New.Beginnings.720p.WEB.h264-HEEL.mp4
Format : MPEG-4
Format profile : Base Media
File size : 449 MiB
Duration : 16 min 14 s
Overall bit rate mode : Variable
Overall bit rate : 3 867 kb/s
Writing application : Lavf58.2.103

Video
ID : 1
Format : AVC
Format/Info : Advanced Video Codec
Codec ID/Info : Advanced Video Coding
Duration : 16 min 14 s
Bit rate mode : Variable
Bit rate : 3 765 kb/s
Maximum bit rate : 5 500 kb/s
Width : 1 280 pixels
Height : 720 pixels
Display aspect ratio : 16:9
Frame rate mode : Constant
Frame rate : 29.970
Color space : YUV
Chroma subsampling : 4:2:0
Bit depth : 8 bits
Scan type : Progressive
Bits/(Pixel*Frame) : 0.136
Stream size : 438 MiB (97%)

Audio
ID : 2
Format : AAC
Format/Info : Advanced Audio Codec
Format profile : LC
Codec ID : mp4a-40-2
Duration : 16 min 14 s
Bit rate mode : Variable
Bit rate : 93.5 kb/s
Maximum bit rate : 100 kb/s
Channel(s) : 2 channels
Channel positions : Front: L R
Sampling rate : 48.0 kHz
Frame rate : 46.875 FPS (1024 SPF)
Compression mode : Lossy
Stream size : 10.9 MiB (2%)
Default : Yes
 

 

 

 

Watch WWE Story Time S03E04 New Beginnings 720p WEB HEEL

 

 

 

 

Watch online

 

 

Waiting finish converting video

 

 

Server 1

 

 

 

 

 

 

 

 

 

 

 

 

 

 

 

Server 2

 

 

 

 

 

 


 

 

 

 

 

 

Uploaded By Site DX-TV.com

 

 

 

open rar file to see this password

 

 

 

 

The password : DX-TV.com

 

 

 

 

 

 

Uploaded.net + rapidgator.net

 

 

 

 

 

http://shrt10.com/zRIs

 

 

 

http://shrt10.com/SlkX

 

 

 

 

 

Watch WWE Story Time S03E04 New Beginnings 720p WEB HEEL