Watch WWE Steve Austins Broken Skull S01E17 Mick Foley 1080p Free Replay DX-TV

Contents show

Watch WWE Steve Austins

 Watch WWE Steve Austins

[WhatsApp-Share]

 

 

Download Links with premium High Speed


Dopapk

 

 

Show Links

 

http://shrt10.com/yymYBh
http://shrt10.com/6qlN5

http://shrt10.com/6qlN5

 

[collapse]

 

 

Nitroflare

 

 

Show Links

 

http://shrt10.com/EC4L8w
http://shrt10.com/giHd5

http://shrt10.com/giHd5

 

[collapse]

 

 

Rapidgator

 

 

Show Links

 

http://shrt10.com/Z6SdbK
http://shrt10.com/PZdIHwX4

http://shrt10.com/PZdIHwX4

 

[collapse]

 

 

Uploaded

 

 

Show Links

 

http://shrt10.com/GRyzik

 

[collapse]

 

 

Watch online

 

Server 1

 

 

 

 

Watch WWE Steve Austins

 

 

 

 

Server-2

 

 

 

 

watch now

 

 

 

|Server-4

 

 

 

 

watch now

 

 

Uploaded By Site DX-TV.com

 

 

Show Info This Show

Watch WWE Steve Austins

 

Complete name : WWE.Steve.Austins.Broken.Skull.Sessions.S01E17.Mick.Foley.720p.Hi.WEB.h264-HEEL.mp4
Format : MPEG-4
Format profile : Base Media
Codec ID : isom
File size : 2.85 GiB
Duration : 1 h 54 min
Overall bit rate mode : Variable
Overall bit rate : 3 556 kb/s

Video
ID : 1
Format : AVC
Format/Info : Advanced Video
Duration : 1 h 54 min
Bit rate : 3 372 kb/s
Width : 1 280 pixels
Height : 720 pixels
Display aspect ratio : 16:9
Frame rate mode : Constant
Frame rate : 30.000 FPS
Color space : YUV
Chroma subsampling : 4:2:0
Bit depth : 8 bits
Scan type : Progressive
Bits/(Pixel*Frame) : 0.122
Stream size : 2.69 GiB (94%)

Watch WWE Steve Austins

Audio
ID : 2
Format : AAC LC
Format/Info : Advanced Audio
Codec ID : mp4a-40-2
Duration : 1 h 54 min
Bit rate mode : Constant
Bit rate : 192 kb/s
Channel(s) : 2 channels
Channel layout : L R
Sampling rate : 48.0 kHz
Frame rate : 46.875 FPS (1024 SPF)
Compression mode : Lossy
Stream size : 159 MiB (5%)
Default : Yes
Alternate group : 1

Text
ID : 3
Format : Timed Text
Muxing mode : sbtl
Codec ID : tx3g
Duration : 1 h 54 min
Bit rate mode : Variable
Bit rate : 126 b/s
Stream size : 106 KiB (0%)
Language : English
Default : Yes
Forced : No
Alternate group : 3

Watch WWE Steve Austins

Complete name : WWE.Steve.Austins.Broken.Skull.Sessions.S01E17.Mick.Foley.720p.Lo.WEB.h264-HEEL.mp4
Format : MPEG-4
Format profile : Base Media
Codec ID : isom
File size : 1.37 GiB
Duration : 1 h 54 min
Overall bit rate mode : Variable
Overall bit rate : 1 706 kb/s

Video
ID : 1
Format : AVC
Format/Info : Advanced Video
Duration : 1 h 54 min
Bit rate : 1 512 kb/s
Width : 1 280 pixels
Height : 720 pixels
Display aspect ratio : 16:9
Frame rate mode : Constant
Frame rate : 30.000 FPS
Color space : YUV
Chroma subsampling : 4:2:0
Bit depth : 8 bits
Scan type : Progressive
Bits/(Pixel*Frame) : 0.055
Stream size : 1.21 GiB (88%)

Watch WWE Steve Austins

Audio
ID : 2
Format : AAC LC
Format/Info : Advanced Audio
Codec ID : mp4a-40-2
Duration : 1 h 54 min
Bit rate mode : Constant
Bit rate : 192 kb/s
Channel(s) : 2 channels
Channel layout : L R
Sampling rate : 48.0 kHz
Frame rate : 46.875 FPS (1024 SPF)
Compression mode : Lossy
Stream size : 159 MiB (11%)
Default : Yes
Alternate group : 1

Text
ID : 3
Format : Timed Text
Muxing mode : sbtl
Codec ID : tx3g
Duration : 1 h 54 min
Bit rate mode : Variable
Bit rate : 126 b/s
Stream size : 106 KiB (0%)
Language : English
Default : Yes
Forced : No
Alternate group : 3

General
Complete name : C:\DX\WWE\Downloading\WWE.Steve.Austins.Broken.Skull.Sessions.S01E17.Mick.Foley.1080p.WEB.h264-HEEL.mp4
Format : MPEG-4
Format profile : Base Media
Codec ID : isom (isom/iso2/avc1/mp41)
File size : 6.40 GiB
Duration : 1 h 54 min
Overall bit rate mode : Variable
Overall bit rate : 7 975 kb/s

Watch WWE Steve Austins

Video
ID : 1
Format : AVC
Format/Info : Advanced Video
Duration : 1 h 54 min
Bit rate : 7 808 kb/s
Width : 1 920 pixels
Height : 1 080 pixels
Display aspect ratio : 16:9
Frame rate mode : Constant
Frame rate : 30.000 FPS
Color space : YUV
Chroma subsampling : 4:2:0
Bit depth : 8 bits
Scan type : Progressive
Bits/(Pixel*Frame) : 0.126
Stream size : 6.24 GiB (97%)

Audio
ID : 2
Format : AAC LC
Format/Info : Advanced Audio
Codec ID : mp4a-40-2
Duration : 1 h 54 min
Bit rate mode : Constant
Bit rate : 192 kb/s
Channel(s) : 2 channels
Channel layout : L R
Sampling rate : 48.0 kHz
Frame rate : 46.875 FPS (1024 SPF)
Compression mode : Lossy
Stream size : 159 MiB (2%)
Default : Yes
Alternate group : 1

Watch WWE Steve Austins

Text
ID : 3
Format : Timed Text
Muxing mode : sbtl
Codec ID : tx3g
Duration : 1 h 54 min
Bit rate mode : Variable
Bit rate : 126 b/s
Stream size : 106 KiB (0%)
Language : English
Default : Yes
Forced : No
Alternate group : 3

Watch WWE Steve Austins

Complete name : WWE.Steve.Austins.Broken.Skull.Sessions.S01E17.Mick.Foley.720p.Hi.WEB.h264-HEEL.mp4
Format : MPEG-4
Format profile : Base Media
Codec ID : isom
File size : 2.85 GiB
Duration : 1 h 54 min
Overall bit rate mode : Variable
Overall bit rate : 3 556 kb/s

Video
ID : 1
Format : AVC
Format/Info : Advanced Video
Duration : 1 h 54 min
Bit rate : 3 372 kb/s
Width : 1 280 pixels
Height : 720 pixels
Display aspect ratio : 16:9
Frame rate mode : Constant
Frame rate : 30.000 FPS
Color space : YUV
Chroma subsampling : 4:2:0
Bit depth : 8 bits
Scan type : Progressive
Bits/(Pixel*Frame) : 0.122
Stream size : 2.69 GiB (94%)

Watch WWE Steve Austins

Audio
ID : 2
Format : AAC LC
Format/Info : Advanced Audio
Codec ID : mp4a-40-2
Duration : 1 h 54 min
Bit rate mode : Constant
Bit rate : 192 kb/s
Channel(s) : 2 channels
Channel layout : L R
Sampling rate : 48.0 kHz
Frame rate : 46.875 FPS (1024 SPF)
Compression mode : Lossy
Stream size : 159 MiB (5%)
Default : Yes
Alternate group : 1

Text
ID : 3
Format : Timed Text
Muxing mode : sbtl
Codec ID : tx3g
Duration : 1 h 54 min
Bit rate mode : Variable
Bit rate : 126 b/s
Stream size : 106 KiB (0%)
Language : English
Default : Yes
Forced : No
Alternate group : 3

Watch WWE Steve Austins

Complete name : WWE.Steve.Austins.Broken.Skull.Sessions.S01E17.Mick.Foley.720p.Lo.WEB.h264-HEEL.mp4
Format : MPEG-4
Format profile : Base Media
Codec ID : isom
File size : 1.37 GiB
Duration : 1 h 54 min
Overall bit rate mode : Variable
Overall bit rate : 1 706 kb/s

Video
ID : 1
Format : AVC
Format/Info : Advanced Video
Duration : 1 h 54 min
Bit rate : 1 512 kb/s
Width : 1 280 pixels
Height : 720 pixels
Display aspect ratio : 16:9
Frame rate mode : Constant
Frame rate : 30.000 FPS
Color space : YUV
Chroma subsampling : 4:2:0
Bit depth : 8 bits
Scan type : Progressive
Bits/(Pixel*Frame) : 0.055
Stream size : 1.21 GiB (88%)

Watch WWE Steve Austins

Audio
ID : 2
Format : AAC LC
Format/Info : Advanced Audio
Codec ID : mp4a-40-2
Duration : 1 h 54 min
Bit rate mode : Constant
Bit rate : 192 kb/s
Channel(s) : 2 channels
Channel layout : L R
Sampling rate : 48.0 kHz
Frame rate : 46.875 FPS (1024 SPF)
Compression mode : Lossy
Stream size : 159 MiB (11%)
Default : Yes
Alternate group : 1

Text
ID : 3
Format : Timed Text
Muxing mode : sbtl
Codec ID : tx3g
Duration : 1 h 54 min
Bit rate mode : Variable
Bit rate : 126 b/s
Stream size : 106 KiB (0%)
Language : English
Default : Yes
Forced : No
Alternate group : 3

General
Complete name : C:\DX\WWE\Downloading\WWE.Steve.Austins.Broken.Skull.Sessions.S01E17.Mick.Foley.1080p.WEB.h264-HEEL.mp4
Format : MPEG-4
Format profile : Base Media
Codec ID : isom (isom/iso2/avc1/mp41)
File size : 6.40 GiB
Duration : 1 h 54 min
Overall bit rate mode : Variable
Overall bit rate : 7 975 kb/s

Watch WWE Steve Austins

Video
ID : 1
Format : AVC
Format/Info : Advanced Video
Duration : 1 h 54 min
Bit rate : 7 808 kb/s
Width : 1 920 pixels
Height : 1 080 pixels
Display aspect ratio : 16:9
Frame rate mode : Constant
Frame rate : 30.000 FPS
Color space : YUV
Chroma subsampling : 4:2:0
Bit depth : 8 bits
Scan type : Progressive
Bits/(Pixel*Frame) : 0.126
Stream size : 6.24 GiB (97%)

Audio
ID : 2
Format : AAC LC
Format/Info : Advanced Audio
Codec ID : mp4a-40-2
Duration : 1 h 54 min
Bit rate mode : Constant
Bit rate : 192 kb/s
Channel(s) : 2 channels
Channel layout : L R
Sampling rate : 48.0 kHz
Frame rate : 46.875 FPS (1024 SPF)
Compression mode : Lossy
Stream size : 159 MiB (2%)
Default : Yes
Alternate group : 1

Watch WWE Steve Austins

Text
ID : 3
Format : Timed Text
Muxing mode : sbtl
Codec ID : tx3g
Duration : 1 h 54 min
Bit rate mode : Variable
Bit rate : 126 b/s
Stream size : 106 KiB (0%)
Language : English
Default : Yes
Forced : No
Alternate group : 3

Watch WWE Steve Austins

Complete name : WWE.Steve.Austins.Broken.Skull.Sessions.S01E17.Mick.Foley.720p.Hi.WEB.h264-HEEL.mp4
Format : MPEG-4
Format profile : Base Media
Codec ID : isom
File size : 2.85 GiB
Duration : 1 h 54 min
Overall bit rate mode : Variable
Overall bit rate : 3 556 kb/s

Video
ID : 1
Format : AVC
Format/Info : Advanced Video
Duration : 1 h 54 min
Bit rate : 3 372 kb/s
Width : 1 280 pixels
Height : 720 pixels
Display aspect ratio : 16:9
Frame rate mode : Constant
Frame rate : 30.000 FPS
Color space : YUV
Chroma subsampling : 4:2:0
Bit depth : 8 bits
Scan type : Progressive
Bits/(Pixel*Frame) : 0.122
Stream size : 2.69 GiB (94%)

Watch WWE Steve Austins

Audio
ID : 2
Format : AAC LC
Format/Info : Advanced Audio
Codec ID : mp4a-40-2
Duration : 1 h 54 min
Bit rate mode : Constant
Bit rate : 192 kb/s
Channel(s) : 2 channels
Channel layout : L R
Sampling rate : 48.0 kHz
Frame rate : 46.875 FPS (1024 SPF)
Compression mode : Lossy
Stream size : 159 MiB (5%)
Default : Yes
Alternate group : 1

Text
ID : 3
Format : Timed Text
Muxing mode : sbtl
Codec ID : tx3g
Duration : 1 h 54 min
Bit rate mode : Variable
Bit rate : 126 b/s
Stream size : 106 KiB (0%)
Language : English
Default : Yes
Forced : No
Alternate group : 3

Watch WWE Steve Austins

Complete name : WWE.Steve.Austins.Broken.Skull.Sessions.S01E17.Mick.Foley.720p.Lo.WEB.h264-HEEL.mp4
Format : MPEG-4
Format profile : Base Media
Codec ID : isom
File size : 1.37 GiB
Duration : 1 h 54 min
Overall bit rate mode : Variable
Overall bit rate : 1 706 kb/s

Video
ID : 1
Format : AVC
Format/Info : Advanced Video
Duration : 1 h 54 min
Bit rate : 1 512 kb/s
Width : 1 280 pixels
Height : 720 pixels
Display aspect ratio : 16:9
Frame rate mode : Constant
Frame rate : 30.000 FPS
Color space : YUV
Chroma subsampling : 4:2:0
Bit depth : 8 bits
Scan type : Progressive
Bits/(Pixel*Frame) : 0.055
Stream size : 1.21 GiB (88%)

Watch WWE Steve Austins

Audio
ID : 2
Format : AAC LC
Format/Info : Advanced Audio
Codec ID : mp4a-40-2
Duration : 1 h 54 min
Bit rate mode : Constant
Bit rate : 192 kb/s
Channel(s) : 2 channels
Channel layout : L R
Sampling rate : 48.0 kHz
Frame rate : 46.875 FPS (1024 SPF)
Compression mode : Lossy
Stream size : 159 MiB (11%)
Default : Yes
Alternate group : 1

Text
ID : 3
Format : Timed Text
Muxing mode : sbtl
Codec ID : tx3g
Duration : 1 h 54 min
Bit rate mode : Variable
Bit rate : 126 b/s
Stream size : 106 KiB (0%)
Language : English
Default : Yes
Forced : No
Alternate group : 3

General
Complete name : C:\DX\WWE\Downloading\WWE.Steve.Austins.Broken.Skull.Sessions.S01E17.Mick.Foley.1080p.WEB.h264-HEEL.mp4
Format : MPEG-4
Format profile : Base Media
Codec ID : isom (isom/iso2/avc1/mp41)
File size : 6.40 GiB
Duration : 1 h 54 min
Overall bit rate mode : Variable
Overall bit rate : 7 975 kb/s

Watch WWE Steve Austins

Video
ID : 1
Format : AVC
Format/Info : Advanced Video
Duration : 1 h 54 min
Bit rate : 7 808 kb/s
Width : 1 920 pixels
Height : 1 080 pixels
Display aspect ratio : 16:9
Frame rate mode : Constant
Frame rate : 30.000 FPS
Color space : YUV
Chroma subsampling : 4:2:0
Bit depth : 8 bits
Scan type : Progressive
Bits/(Pixel*Frame) : 0.126
Stream size : 6.24 GiB (97%)

Audio
ID : 2
Format : AAC LC
Format/Info : Advanced Audio
Codec ID : mp4a-40-2
Duration : 1 h 54 min
Bit rate mode : Constant
Bit rate : 192 kb/s
Channel(s) : 2 channels
Channel layout : L R
Sampling rate : 48.0 kHz
Frame rate : 46.875 FPS (1024 SPF)
Compression mode : Lossy
Stream size : 159 MiB (2%)
Default : Yes
Alternate group : 1

Watch WWE Steve Austins

Text
ID : 3
Format : Timed Text
Muxing mode : sbtl
Codec ID : tx3g
Duration : 1 h 54 min
Bit rate mode : Variable
Bit rate : 126 b/s
Stream size : 106 KiB (0%)
Language : English
Default : Yes
Forced : No
Alternate group : 3

Watch WWE Steve Austins

Complete name : WWE.Steve.Austins.Broken.Skull.Sessions.S01E17.Mick.Foley.720p.Hi.WEB.h264-HEEL.mp4
Format : MPEG-4
Format profile : Base Media
Codec ID : isom
File size : 2.85 GiB
Duration : 1 h 54 min
Overall bit rate mode : Variable
Overall bit rate : 3 556 kb/s

Video
ID : 1
Format : AVC
Format/Info : Advanced Video
Duration : 1 h 54 min
Bit rate : 3 372 kb/s
Width : 1 280 pixels
Height : 720 pixels
Display aspect ratio : 16:9
Frame rate mode : Constant
Frame rate : 30.000 FPS
Color space : YUV
Chroma subsampling : 4:2:0
Bit depth : 8 bits
Scan type : Progressive
Bits/(Pixel*Frame) : 0.122
Stream size : 2.69 GiB (94%)

Watch WWE Steve Austins

Audio
ID : 2
Format : AAC LC
Format/Info : Advanced Audio
Codec ID : mp4a-40-2
Duration : 1 h 54 min
Bit rate mode : Constant
Bit rate : 192 kb/s
Channel(s) : 2 channels
Channel layout : L R
Sampling rate : 48.0 kHz
Frame rate : 46.875 FPS (1024 SPF)
Compression mode : Lossy
Stream size : 159 MiB (5%)
Default : Yes
Alternate group : 1

Text
ID : 3
Format : Timed Text
Muxing mode : sbtl
Codec ID : tx3g
Duration : 1 h 54 min
Bit rate mode : Variable
Bit rate : 126 b/s
Stream size : 106 KiB (0%)
Language : English
Default : Yes
Forced : No
Alternate group : 3

Watch WWE Steve Austins

Complete name : WWE.Steve.Austins.Broken.Skull.Sessions.S01E17.Mick.Foley.720p.Lo.WEB.h264-HEEL.mp4
Format : MPEG-4
Format profile : Base Media
Codec ID : isom
File size : 1.37 GiB
Duration : 1 h 54 min
Overall bit rate mode : Variable
Overall bit rate : 1 706 kb/s

Video
ID : 1
Format : AVC
Format/Info : Advanced Video
Duration : 1 h 54 min
Bit rate : 1 512 kb/s
Width : 1 280 pixels
Height : 720 pixels
Display aspect ratio : 16:9
Frame rate mode : Constant
Frame rate : 30.000 FPS
Color space : YUV
Chroma subsampling : 4:2:0
Bit depth : 8 bits
Scan type : Progressive
Bits/(Pixel*Frame) : 0.055
Stream size : 1.21 GiB (88%)

Watch WWE Steve Austins

Audio
ID : 2
Format : AAC LC
Format/Info : Advanced Audio
Codec ID : mp4a-40-2
Duration : 1 h 54 min
Bit rate mode : Constant
Bit rate : 192 kb/s
Channel(s) : 2 channels
Channel layout : L R
Sampling rate : 48.0 kHz
Frame rate : 46.875 FPS (1024 SPF)
Compression mode : Lossy
Stream size : 159 MiB (11%)
Default : Yes
Alternate group : 1

Text
ID : 3
Format : Timed Text
Muxing mode : sbtl
Codec ID : tx3g
Duration : 1 h 54 min
Bit rate mode : Variable
Bit rate : 126 b/s
Stream size : 106 KiB (0%)
Language : English
Default : Yes
Forced : No
Alternate group : 3

General
Complete name : C:\DX\WWE\Downloading\WWE.Steve.Austins.Broken.Skull.Sessions.S01E17.Mick.Foley.1080p.WEB.h264-HEEL.mp4
Format : MPEG-4
Format profile : Base Media
Codec ID : isom (isom/iso2/avc1/mp41)
File size : 6.40 GiB
Duration : 1 h 54 min
Overall bit rate mode : Variable
Overall bit rate : 7 975 kb/s

Watch WWE Steve Austins

Video
ID : 1
Format : AVC
Format/Info : Advanced Video
Duration : 1 h 54 min
Bit rate : 7 808 kb/s
Width : 1 920 pixels
Height : 1 080 pixels
Display aspect ratio : 16:9
Frame rate mode : Constant
Frame rate : 30.000 FPS
Color space : YUV
Chroma subsampling : 4:2:0
Bit depth : 8 bits
Scan type : Progressive
Bits/(Pixel*Frame) : 0.126
Stream size : 6.24 GiB (97%)

Audio
ID : 2
Format : AAC LC
Format/Info : Advanced Audio
Codec ID : mp4a-40-2
Duration : 1 h 54 min
Bit rate mode : Constant
Bit rate : 192 kb/s
Channel(s) : 2 channels
Channel layout : L R
Sampling rate : 48.0 kHz
Frame rate : 46.875 FPS (1024 SPF)
Compression mode : Lossy
Stream size : 159 MiB (2%)
Default : Yes
Alternate group : 1

Watch WWE Steve Austins

Text
ID : 3
Format : Timed Text
Muxing mode : sbtl
Codec ID : tx3g
Duration : 1 h 54 min
Bit rate mode : Variable
Bit rate : 126 b/s
Stream size : 106 KiB (0%)
Language : English
Default : Yes
Forced : No
Alternate group : 3

Watch WWE Steve Austins

Complete name : WWE.Steve.Austins.Broken.Skull.Sessions.S01E17.Mick.Foley.720p.Hi.WEB.h264-HEEL.mp4
Format : MPEG-4
Format profile : Base Media
Codec ID : isom
File size : 2.85 GiB
Duration : 1 h 54 min
Overall bit rate mode : Variable
Overall bit rate : 3 556 kb/s

Video
ID : 1
Format : AVC
Format/Info : Advanced Video
Duration : 1 h 54 min
Bit rate : 3 372 kb/s
Width : 1 280 pixels
Height : 720 pixels
Display aspect ratio : 16:9
Frame rate mode : Constant
Frame rate : 30.000 FPS
Color space : YUV
Chroma subsampling : 4:2:0
Bit depth : 8 bits
Scan type : Progressive
Bits/(Pixel*Frame) : 0.122
Stream size : 2.69 GiB (94%)

Watch WWE Steve Austins

Audio
ID : 2
Format : AAC LC
Format/Info : Advanced Audio
Codec ID : mp4a-40-2
Duration : 1 h 54 min
Bit rate mode : Constant
Bit rate : 192 kb/s
Channel(s) : 2 channels
Channel layout : L R
Sampling rate : 48.0 kHz
Frame rate : 46.875 FPS (1024 SPF)
Compression mode : Lossy
Stream size : 159 MiB (5%)
Default : Yes
Alternate group : 1

Text
ID : 3
Format : Timed Text
Muxing mode : sbtl
Codec ID : tx3g
Duration : 1 h 54 min
Bit rate mode : Variable
Bit rate : 126 b/s
Stream size : 106 KiB (0%)
Language : English
Default : Yes
Forced : No
Alternate group : 3

Watch WWE Steve Austins

Complete name : WWE.Steve.Austins.Broken.Skull.Sessions.S01E17.Mick.Foley.720p.Lo.WEB.h264-HEEL.mp4
Format : MPEG-4
Format profile : Base Media
Codec ID : isom
File size : 1.37 GiB
Duration : 1 h 54 min
Overall bit rate mode : Variable
Overall bit rate : 1 706 kb/s

Video
ID : 1
Format : AVC
Format/Info : Advanced Video
Duration : 1 h 54 min
Bit rate : 1 512 kb/s
Width : 1 280 pixels
Height : 720 pixels
Display aspect ratio : 16:9
Frame rate mode : Constant
Frame rate : 30.000 FPS
Color space : YUV
Chroma subsampling : 4:2:0
Bit depth : 8 bits
Scan type : Progressive
Bits/(Pixel*Frame) : 0.055
Stream size : 1.21 GiB (88%)

Watch WWE Steve Austins

Audio
ID : 2
Format : AAC LC
Format/Info : Advanced Audio
Codec ID : mp4a-40-2
Duration : 1 h 54 min
Bit rate mode : Constant
Bit rate : 192 kb/s
Channel(s) : 2 channels
Channel layout : L R
Sampling rate : 48.0 kHz
Frame rate : 46.875 FPS (1024 SPF)
Compression mode : Lossy
Stream size : 159 MiB (11%)
Default : Yes
Alternate group : 1

Text
ID : 3
Format : Timed Text
Muxing mode : sbtl
Codec ID : tx3g
Duration : 1 h 54 min
Bit rate mode : Variable
Bit rate : 126 b/s
Stream size : 106 KiB (0%)
Language : English
Default : Yes
Forced : No
Alternate group : 3

General
Complete name : C:\DX\WWE\Downloading\WWE.Steve.Austins.Broken.Skull.Sessions.S01E17.Mick.Foley.1080p.WEB.h264-HEEL.mp4
Format : MPEG-4
Format profile : Base Media
Codec ID : isom (isom/iso2/avc1/mp41)
File size : 6.40 GiB
Duration : 1 h 54 min
Overall bit rate mode : Variable
Overall bit rate : 7 975 kb/s

Watch WWE Steve Austins

Video
ID : 1
Format : AVC
Format/Info : Advanced Video
Duration : 1 h 54 min
Bit rate : 7 808 kb/s
Width : 1 920 pixels
Height : 1 080 pixels
Display aspect ratio : 16:9
Frame rate mode : Constant
Frame rate : 30.000 FPS
Color space : YUV
Chroma subsampling : 4:2:0
Bit depth : 8 bits
Scan type : Progressive
Bits/(Pixel*Frame) : 0.126
Stream size : 6.24 GiB (97%)

Audio
ID : 2
Format : AAC LC
Format/Info : Advanced Audio
Codec ID : mp4a-40-2
Duration : 1 h 54 min
Bit rate mode : Constant
Bit rate : 192 kb/s
Channel(s) : 2 channels
Channel layout : L R
Sampling rate : 48.0 kHz
Frame rate : 46.875 FPS (1024 SPF)
Compression mode : Lossy
Stream size : 159 MiB (2%)
Default : Yes
Alternate group : 1

Watch WWE Steve Austins

Text
ID : 3
Format : Timed Text
Muxing mode : sbtl
Codec ID : tx3g
Duration : 1 h 54 min
Bit rate mode : Variable
Bit rate : 126 b/s
Stream size : 106 KiB (0%)
Language : English
Default : Yes
Forced : No
Alternate group : 3

Watch WWE Steve Austins

Complete name : WWE.Steve.Austins.Broken.Skull.Sessions.S01E17.Mick.Foley.720p.Hi.WEB.h264-HEEL.mp4
Format : MPEG-4
Format profile : Base Media
Codec ID : isom
File size : 2.85 GiB
Duration : 1 h 54 min
Overall bit rate mode : Variable
Overall bit rate : 3 556 kb/s

Video
ID : 1
Format : AVC
Format/Info : Advanced Video
Duration : 1 h 54 min
Bit rate : 3 372 kb/s
Width : 1 280 pixels
Height : 720 pixels
Display aspect ratio : 16:9
Frame rate mode : Constant
Frame rate : 30.000 FPS
Color space : YUV
Chroma subsampling : 4:2:0
Bit depth : 8 bits
Scan type : Progressive
Bits/(Pixel*Frame) : 0.122
Stream size : 2.69 GiB (94%)

Watch WWE Steve Austins

Audio
ID : 2
Format : AAC LC
Format/Info : Advanced Audio
Codec ID : mp4a-40-2
Duration : 1 h 54 min
Bit rate mode : Constant
Bit rate : 192 kb/s
Channel(s) : 2 channels
Channel layout : L R
Sampling rate : 48.0 kHz
Frame rate : 46.875 FPS (1024 SPF)
Compression mode : Lossy
Stream size : 159 MiB (5%)
Default : Yes
Alternate group : 1

Text
ID : 3
Format : Timed Text
Muxing mode : sbtl
Codec ID : tx3g
Duration : 1 h 54 min
Bit rate mode : Variable
Bit rate : 126 b/s
Stream size : 106 KiB (0%)
Language : English
Default : Yes
Forced : No
Alternate group : 3

Watch WWE Steve Austins

Complete name : WWE.Steve.Austins.Broken.Skull.Sessions.S01E17.Mick.Foley.720p.Lo.WEB.h264-HEEL.mp4
Format : MPEG-4
Format profile : Base Media
Codec ID : isom
File size : 1.37 GiB
Duration : 1 h 54 min
Overall bit rate mode : Variable
Overall bit rate : 1 706 kb/s

Video
ID : 1
Format : AVC
Format/Info : Advanced Video
Duration : 1 h 54 min
Bit rate : 1 512 kb/s
Width : 1 280 pixels
Height : 720 pixels
Display aspect ratio : 16:9
Frame rate mode : Constant
Frame rate : 30.000 FPS
Color space : YUV
Chroma subsampling : 4:2:0
Bit depth : 8 bits
Scan type : Progressive
Bits/(Pixel*Frame) : 0.055
Stream size : 1.21 GiB (88%)

Watch WWE Steve Austins

Audio
ID : 2
Format : AAC LC
Format/Info : Advanced Audio
Codec ID : mp4a-40-2
Duration : 1 h 54 min
Bit rate mode : Constant
Bit rate : 192 kb/s
Channel(s) : 2 channels
Channel layout : L R
Sampling rate : 48.0 kHz
Frame rate : 46.875 FPS (1024 SPF)
Compression mode : Lossy
Stream size : 159 MiB (11%)
Default : Yes
Alternate group : 1

Text
ID : 3
Format : Timed Text
Muxing mode : sbtl
Codec ID : tx3g
Duration : 1 h 54 min
Bit rate mode : Variable
Bit rate : 126 b/s
Stream size : 106 KiB (0%)
Language : English
Default : Yes
Forced : No
Alternate group : 3

General
Complete name : C:\DX\WWE\Downloading\WWE.Steve.Austins.Broken.Skull.Sessions.S01E17.Mick.Foley.1080p.WEB.h264-HEEL.mp4
Format : MPEG-4
Format profile : Base Media
Codec ID : isom (isom/iso2/avc1/mp41)
File size : 6.40 GiB
Duration : 1 h 54 min
Overall bit rate mode : Variable
Overall bit rate : 7 975 kb/s

Watch WWE Steve Austins

Video
ID : 1
Format : AVC
Format/Info : Advanced Video
Duration : 1 h 54 min
Bit rate : 7 808 kb/s
Width : 1 920 pixels
Height : 1 080 pixels
Display aspect ratio : 16:9
Frame rate mode : Constant
Frame rate : 30.000 FPS
Color space : YUV
Chroma subsampling : 4:2:0
Bit depth : 8 bits
Scan type : Progressive
Bits/(Pixel*Frame) : 0.126
Stream size : 6.24 GiB (97%)

Audio
ID : 2
Format : AAC LC
Format/Info : Advanced Audio
Codec ID : mp4a-40-2
Duration : 1 h 54 min
Bit rate mode : Constant
Bit rate : 192 kb/s
Channel(s) : 2 channels
Channel layout : L R
Sampling rate : 48.0 kHz
Frame rate : 46.875 FPS (1024 SPF)
Compression mode : Lossy
Stream size : 159 MiB (2%)
Default : Yes
Alternate group : 1

Watch WWE Steve Austins

Text
ID : 3
Format : Timed Text
Muxing mode : sbtl
Codec ID : tx3g
Duration : 1 h 54 min
Bit rate mode : Variable
Bit rate : 126 b/s
Stream size : 106 KiB (0%)
Language : English
Default : Yes
Forced : No
Alternate group : 3

Watch WWE Steve Austins

Complete name : WWE.Steve.Austins.Broken.Skull.Sessions.S01E17.Mick.Foley.720p.Hi.WEB.h264-HEEL.mp4
Format : MPEG-4
Format profile : Base Media
Codec ID : isom
File size : 2.85 GiB
Duration : 1 h 54 min
Overall bit rate mode : Variable
Overall bit rate : 3 556 kb/s

Video
ID : 1
Format : AVC
Format/Info : Advanced Video
Duration : 1 h 54 min
Bit rate : 3 372 kb/s
Width : 1 280 pixels
Height : 720 pixels
Display aspect ratio : 16:9
Frame rate mode : Constant
Frame rate : 30.000 FPS
Color space : YUV
Chroma subsampling : 4:2:0
Bit depth : 8 bits
Scan type : Progressive
Bits/(Pixel*Frame) : 0.122
Stream size : 2.69 GiB (94%)

Watch WWE Steve Austins

Audio
ID : 2
Format : AAC LC
Format/Info : Advanced Audio
Codec ID : mp4a-40-2
Duration : 1 h 54 min
Bit rate mode : Constant
Bit rate : 192 kb/s
Channel(s) : 2 channels
Channel layout : L R
Sampling rate : 48.0 kHz
Frame rate : 46.875 FPS (1024 SPF)
Compression mode : Lossy
Stream size : 159 MiB (5%)
Default : Yes
Alternate group : 1

Text
ID : 3
Format : Timed Text
Muxing mode : sbtl
Codec ID : tx3g
Duration : 1 h 54 min
Bit rate mode : Variable
Bit rate : 126 b/s
Stream size : 106 KiB (0%)
Language : English
Default : Yes
Forced : No
Alternate group : 3

Watch WWE Steve Austins

Complete name : WWE.Steve.Austins.Broken.Skull.Sessions.S01E17.Mick.Foley.720p.Lo.WEB.h264-HEEL.mp4
Format : MPEG-4
Format profile : Base Media
Codec ID : isom
File size : 1.37 GiB
Duration : 1 h 54 min
Overall bit rate mode : Variable
Overall bit rate : 1 706 kb/s

Video
ID : 1
Format : AVC
Format/Info : Advanced Video
Duration : 1 h 54 min
Bit rate : 1 512 kb/s
Width : 1 280 pixels
Height : 720 pixels
Display aspect ratio : 16:9
Frame rate mode : Constant
Frame rate : 30.000 FPS
Color space : YUV
Chroma subsampling : 4:2:0
Bit depth : 8 bits
Scan type : Progressive
Bits/(Pixel*Frame) : 0.055
Stream size : 1.21 GiB (88%)

Watch WWE Steve Austins

Audio
ID : 2
Format : AAC LC
Format/Info : Advanced Audio
Codec ID : mp4a-40-2
Duration : 1 h 54 min
Bit rate mode : Constant
Bit rate : 192 kb/s
Channel(s) : 2 channels
Channel layout : L R
Sampling rate : 48.0 kHz
Frame rate : 46.875 FPS (1024 SPF)
Compression mode : Lossy
Stream size : 159 MiB (11%)
Default : Yes
Alternate group : 1

Text
ID : 3
Format : Timed Text
Muxing mode : sbtl
Codec ID : tx3g
Duration : 1 h 54 min
Bit rate mode : Variable
Bit rate : 126 b/s
Stream size : 106 KiB (0%)
Language : English
Default : Yes
Forced : No
Alternate group : 3

General
Complete name : C:\DX\WWE\Downloading\WWE.Steve.Austins.Broken.Skull.Sessions.S01E17.Mick.Foley.1080p.WEB.h264-HEEL.mp4
Format : MPEG-4
Format profile : Base Media
Codec ID : isom (isom/iso2/avc1/mp41)
File size : 6.40 GiB
Duration : 1 h 54 min
Overall bit rate mode : Variable
Overall bit rate : 7 975 kb/s

Watch WWE Steve Austins

Video
ID : 1
Format : AVC
Format/Info : Advanced Video
Duration : 1 h 54 min
Bit rate : 7 808 kb/s
Width : 1 920 pixels
Height : 1 080 pixels
Display aspect ratio : 16:9
Frame rate mode : Constant
Frame rate : 30.000 FPS
Color space : YUV
Chroma subsampling : 4:2:0
Bit depth : 8 bits
Scan type : Progressive
Bits/(Pixel*Frame) : 0.126
Stream size : 6.24 GiB (97%)

Audio
ID : 2
Format : AAC LC
Format/Info : Advanced Audio
Codec ID : mp4a-40-2
Duration : 1 h 54 min
Bit rate mode : Constant
Bit rate : 192 kb/s
Channel(s) : 2 channels
Channel layout : L R
Sampling rate : 48.0 kHz
Frame rate : 46.875 FPS (1024 SPF)
Compression mode : Lossy
Stream size : 159 MiB (2%)
Default : Yes
Alternate group : 1

Watch WWE Steve Austins

Text
ID : 3
Format : Timed Text
Muxing mode : sbtl
Codec ID : tx3g
Duration : 1 h 54 min
Bit rate mode : Variable
Bit rate : 126 b/s
Stream size : 106 KiB (0%)
Language : English
Default : Yes
Forced : No
Alternate group : 3

Watch WWE Steve Austins

 

[collapse]

 

 

https://dx-tv.com/

Leave a Reply

Your email address will not be published. Required fields are marked *

This site uses Akismet to reduce spam. Learn how your comment data is processed.

Previous Post
WWE Hell In A Cell 2021

WWE Hell In A Cell 2021 Online Free Replay 720p

Next Post
WWE Hell In A Cell 2021

WWE Hell In A Cell 2021 1080p download Free