Watch WWE Steve Austins Broken Skull Drew McIntyre DX-TV

Watch WWE Steve Austins Broken Skull S01E11 Drew McIntyre 1080p DX-TV

Watch WWE Steve Austins Broken

 Watch WWE Steve Austins Broken

 

Download Links with premium High Speed   

 

 

dropapk.to

http://shrt10.com/sS6rxBk
http://shrt10.com/2NRQQk

 

 

nitroflare.com

http://shrt10.com/TKS0i
http://shrt10.com/fxkMGG6

 

 

rapidgator.net

http://shrt10.com/2Wl6wH
http://shrt10.com/q0mFpG4

 

 

uploaded.net

http://shrt10.com/MMW51na2b

 

 

uploadgig.com

http://shrt10.com/hzVHz
http://shrt10.com/Tm42B28

 

Watch online

 

Server 1

 

 

 

 

Watch WWE Steve Austins Broken

 

 

 

 

Server-2

 

 

 

 

watch now

 

 

Uploaded By Site DX-TV.com

 

 

 

[su_expand more_text=”Show More Info” less_text=”Close all Info” height=”50″ text_color=”#000000″ link_color=”#e25f8b” link_style=”button” more_icon=”icon: arrow-down” less_icon=”icon: arrow-up”]
Complete name : WWE.Steve.Austins.Broken.Skull.Sessions.S01E11.Drew.McIntyre.1080p.WEB.h264-HEEL.mp4
Format : MPEG-4
Format profile : Base Media
Codec ID : isom
File size : 5.45 GiB
Duration : 1 h 37 min
Overall bit rate : 7 966 kb/s
Writing application : Lavf58.32.104

Watch WWE Steve Austins Broken

Video
ID : 1
Format : AVC
Duration : 1 h 37 min
Bit rate : 7 808 kb/s
Width : 1 920 pixels
Height : 1 080 pixels
Display aspect ratio : 16:9
Frame rate mode : Constant
Frame rate : 30.000 FPS
Color space : YUV
Chroma subsampling : 4:2:0
Bit depth : 8 bits
Scan type : Progressive
Bits/(Pixel*Frame) : 0.126
Stream size : 5.31 GiB (97%)
Codec configuration box : avc

 WWE Steve Austins Broken

Audio
ID : 2
Format : AAC LC
Format/Info : Advanced Audio
Codec ID : mp4a-40-2
Duration : 1 h 37 min
Bit rate mode : Constant
Bit rate : 192 kb/s
Channel(s) : 2 channels
Channel layout : L R
Sampling rate : 48.0 kHz
Frame rate : 46.875 FPS (1024 SPF)
Compression mode : Lossy
Stream size : 135 MiB (2%)
Default : Yes
Alternate group : 1

Complete name : WWE.Steve.Austins.Broken.Skull.Sessions.S01E11.Drew.McIntyre.720p.Hi.WEB.h264-HEEL.mp4
Format : MPEG-4
Format profile : Base Media
File size : 2.43 GiB
Duration : 1 h 37 min
Overall bit rate : 3 552 kb/s
Writing application : Lavf58.32.104

Watch WWE Steve Austins Broken

Video
ID : 1
Format : AVC
Format/Info : Advanced Video
Duration : 1 h 37 min
Bit rate : 3 372 kb/s
Width : 1 280 pixels
Height : 720 pixels
Display aspect ratio : 16:9
Frame rate mode : Constant
Frame rate : 30.000 FPS
Color space : YUV
Chroma subsampling : 4:2:0
Bit depth : 8 bits
Scan type : Progressive
Bits/(Pixel*Frame) : 0.122
Stream size : 2.29 GiB (94%)

WWE Steve Austins Broken

Audio
ID : 2
Format : AAC LC
Format/Info : Advanced Audio
Codec ID : mp4a-40-2
Duration : 1 h 37 min
Bit rate mode : Constant
Bit rate : 192 kb/s
Channel(s) : 2 channels
Channel layout : L R
Sampling rate : 48.0 kHz
Frame rate : 46.875 FPS (1024 SPF)
Compression mode : Lossy
Stream size : 135 MiB (5%)
Default : Yes
Alternate group : 1

 

[/su_expand]

 

https://dx-tv.com/

Leave a Reply

Your email address will not be published. Required fields are marked *

This site uses Akismet to reduce spam. Learn how your comment data is processed.