Watch WWE SmackDown Live 2019 05 07 720p HDTV NWCHD free full show online

Watch WWE SmackDown Live 2019 05 07 720p HDTV NWCHD free full show online

 

 

 

 


 

 

dx-tv.com

 

 

 

Name – WWE.SmackDown.Live.2019.05.07.720p.HDTV.x264-NWCHD 
Released – 05.07.2019 
Aired – 05.07.2019 
Size – 2.93 GB 
Source – USA HD 
Container – MP4 
Resolution – 1280 x 720 (16:9) @ 29.970 FPS 
Video – x264 @ 4500 KBPS 
Audio – AAC @ 192 KBPS 
Length – 01:29:25 MIN

 

 

Complete name : WWE.SmackDown.Live.2019.05.07.720p.HDTV.x264-NWCHD.mp4
Format : MPEG-4
Format profile : Base Media
Codec ID : isom (isom/iso2/avc1/mp41)
File size : 2.93 GiB
Duration : 1 h 29 min
Overall bit rate : 4 694 kb/s
Writing application : Lavf58.17.100

Video
ID : 1
Format : AVC
Format/Info : Advanced Video Codec
Format settings, Reference : 4 frames
Codec ID : avc1
Codec ID/Info : Advanced Video Coding
Duration : 1 h 29 min
Bit rate : 4 500 kb/s
Width : 1 280 pixels
Height : 720 pixels
Display aspect ratio : 16:9
Frame rate mode : Variable
Frame rate : 29.970 (30000/1001) FPS
Minimum frame rate : 29.183 FPS
Maximum frame rate : 29.970 FPS
Color space : YUV
Chroma subsampling : 4:2:0
Bit depth : 8 bits
Scan type : Progressive
Bits/(Pixel*Frame) : 0.163
Stream size : 2.81 GiB (96%)

Color range : Limited
Color primaries : BT.709
Transfer characteristics : BT.709
Matrix coefficients : BT.709
Codec configuration box : avcC

Audio
ID : 2
Format : AAC LC
Format/Info : Advanced Audio Codec Low Complexity
Codec ID : mp4a-40-2
Duration : 1 h 29 min
Bit rate mode : Constant
Bit rate : 192 kb/s
Channel(s) : 2 channels
Channel layout : L R
Sampling rate : 48.0 kHz
Frame rate : 46.875 FPS (1024 SPF)
Compression mode : Lossy
Stream size : 123 MiB (4%)
Default : Yes
Alternate group : 1

 

 

 

 

Watch WWE SmackDown Live 2019 05 07 720p HDTV NWCHD free full show online

 

 

 

 

Watch online

 

 

Waiting finish converting video

 

 

Server 1

 

 

 

 



Uploaded By Site DX-TV.com

 

 

 

open rar file to see this password

 

 

 

 

The password : DX-TV.com

 

 

 

 

Uploaded.net + rapidgator.net + katfile.com + bitster.cz

 

 

 

 


 
https://shrt10.com/qO2n1
 

 
https://shrt10.com/3RSyAAXi
 

 
https://shrt10.com/0TLtZt
 

 
https://shrt10.com/6JZb9f
 

 

 

 

Watch WWE SmackDown Live 2019 05 07 720p HDTV NWCHD free full show online

Leave a Reply

Your email address will not be published. Required fields are marked *