Watch WWE Smackdown Live 2018 10 30 HDTV NWCHD

WWE Smackdown Live 2018 10 30 720p HDTV Star

 

 

 

 


 

 

 

dx-tv.com

 

 

 

 

 

Complete name : C:\Users\snaw\Downloads\Snaw\WWE\Download\WWE.SmackDown.Live.2018.10.30.HDTV.x264-NWCHD.mp4
Format : MPEG-4
Format profile : Base Media
Codec ID : isom (isom/iso2/avc1/mp41)
File size : 1 014 MiB
Duration : 1 h 27 min
Overall bit rate : 1 619 kb/s
Writing application : Lavf58.17.100

Video
ID : 1
Format : AVC
Format/Info : Advanced Video Codec
Codec ID/Info : Advanced Video Coding
Duration : 1 h 27 min
Bit rate : 1 400 kb/s
Width : 704 pixels
Height : 400 pixels
Display aspect ratio : 16:9
Frame rate mode : Variable
Frame rate : 29.970 (30000/1001) FPS
Minimum frame rate : 29.240 FPS
Maximum frame rate : 29.970 FPS
Color space : YUV
Chroma subsampling : 4:2:0
Bit depth : 8 bits
Scan type : Progressive
Bits/(Pixel*Frame) : 0.166
Stream size : 888 MiB (88%)
Color range : Limited
Color primaries : BT.709
Transfer characteristics : BT.709
Matrix coefficients : BT.709

Audio
ID : 2
Format : AAC
Format/Info : Advanced Audio Codec
Format profile : LC
Codec ID : mp4a-40-2
Duration : 1 h 27 min
Bit rate mode : Constant
Bit rate : 192 kb/s
Channel(s) : 2 channels
Channel positions : Front: L R
Sampling rate : 48.0 kHz
Frame rate : 46.875 FPS (1024 SPF)
Compression mode : Lossy
Stream size : 120 MiB (12%)
Default : Yes
Alternate group : 1

 

 

 

Watch WWE Smackdown Live 2018 10 30 HDTV NWCHD

 

 

 

 

Watch online

 

 

Waiting finish converting video

 

 

Server 1

 

 

 

 

 

 

 

 

 

 

 

 

 

 

 

Server 2

 

 

 

 

 

 

 

 

 

 

 

 

 

 

Uploaded By Site DX-TV.com

 

 

 

open rar file to see this password

 

 

 

 

The password : DX-TV.com

 

 

 

 

Uploaded.net + rapidgator.net

 

 

 

 

 

http://shrt10.com/fxpqx

 

 

 

http://shrt10.com/x0puL

 

 

 

 

Watch WWE Smackdown Live 2018 10 30 HDTV NWCHD

Leave a Reply

This site uses Akismet to reduce spam. Learn how your comment data is processed.