Watch WWE SmackDown Live 2018 09 11 HDTV NWCHD /720p

Watch WWE SmackDown Live 2018 09 11 HDTV NWCHD /720p

 

 

 

 


 

 

 

dx-tv.com

 

 

 

 

Complete name : WWE.SmackDown.Live.2018.09.11.HDTV.x264-NWCHD.mp4
Format : MPEG-4
Format profile : Base Media
File size : 1.01 GiB
Duration : 1 h 29 min
Overall bit rate : 1 612 kb/s
Writing application : Lavf58.17.100

Video
ID : 1
Format : AVC
Format/Info : Advanced Video Codec
Codec ID/Info : Advanced Video Coding
Duration : 1 h 29 min
Bit rate : 1 400 kb/s
Width : 704 pixels
Height : 400 pixels
Display aspect ratio : 16:9
Frame rate mode : Variable
Frame rate : 29.970
Minimum frame rate : 29.528 FPS
Maximum frame rate : 29.970 FPS
Color space : YUV
Chroma subsampling : 4:2:0
Bit depth : 8 bits
Scan type : Progressive
Bits/(Pixel*Frame) : 0.166
Stream size : 904 MiB (88%)
Color range : Limited
Color primaries : BT.709
Transfer characteristics : BT.709
Matrix coefficients : BT.709

Audio
ID : 2
Format : AAC
Format/Info : Advanced Audio Codec
Format profile : LC
Codec ID : mp4a-40-2
Duration : 1 h 29 min
Bit rate mode : Constant
Bit rate : 192 kb/s
Channel(s) : 2 channels
Channel positions : Front: L R
Sampling rate : 48.0 kHz
Frame rate : 46.875 FPS
Compression mode : Lossy
Stream size : 123 MiB (12%)
Default : Yes
Alternate group : 1

 

 

 

 

 

Name – WWE.SmackDown.Live.2018.09.11.720p.HDTV.x264-NWCHD
Released – 09.11.2018
Aired – 09.11.2018
Size – 2.96 GB
Source – USA HD
Container – MP4
Resolution – 1280 x 720 (16:9) @ 29.970 FPS
Video – x264 @ 4500 KBPS
Audio – AAC @ 192 KBPS
Length – 01:29:36 MIN
 

 

 

 

 

Watch WWE SmackDown Live 2018 09 11 HDTV NWCHD /720p

 

 

 

 

Watch online

 

 

Waiting finish converting video

 

 

Server 1

 

 

 

 

 

 

 

 

 

 

 

 

 

 

 

Server 2

 

 

 

 

 

 


 

 

 

 

 

 

 

Uploaded By Site DX-TV.com

 

 

 

open rar file to see this password

 

 

 

 

The password : DX-TV.com

 

 

 

 

Uploaded.net + rapidgator.net

 

 

 

 

 
http://shrt10.com/OrfNIGBa
 

 

 

http://shrt10.com/Wqyaq
 

 

 
http://shrt10.com/ofAnE

 

 

 
http://shrt10.com/37nattBw
 

 

 

 

 

 

 

Watch WWE SmackDown Live 2018 09 11 HDTV NWCHD /720p