Watch WWE SmackDown 720p Free Full Show 2020 10 02

WWE Friday Night SmackDown 2020 10 02 720p HDTV NWCHD DX-TV

 

WWE SmackDown

 

 WWE SmackDown

 

Watch WWE SmackDown 720p Free Full Show 2020 10 02

 

Sami Zayn def. Jeff Hardy – Intercontinental Championship Match

Sami Zayn began the night by tossing Jeff Hardy’s old Intercontinental Championship into the trash, and he ended by defending ,

his with another devious win over The Charismatic Enigma.

Zayn’s ribs were noticeably injured as the new titleholder’s midsection was wrapped heading into the match with Hardy.

The high-flying icon had Zayn scrambling.

WWE SmackDown

after a sliding kick to the outside, but the champion evaded a big splash that resulted in Hardy’s crash into the barricade.

Hardy made a huge maneuver with a Super plex off the top rope to drive Zayn’s injured ribs straight into the mat. Before the opening bell,

it was revealed Zayn had removed the pad off one of the top turnbuckles. With the exposed turnbuckle in the back of his mind,

The Great Liberator tripped up Hardy off the top rope and sent him face-first into the harsh surface.

Zayn seized the opportunity and rolled up the challenger to once again.

emerge victorious from an Intercontinental Title Match by any means necessary.

WWE SmackDown

 

Complete name : WWE.Friday.Night.SmackDown.2020.10.02.720p.HDTV.x264-NWCHD.mp4
Format : MPEG-4
Format profile : Base Media
Codec ID : isom
File size : 2.74 GiB
Duration : 1 h 23 min
Overall bit rate : 4 704 kb/s
Writing application : Lavf58 

WWE SmackDown

Video
ID : 1
Format : AVC
Duration : 1 h 23 min
Bit rate : 4 500 kb/s
Width : 1 280 pixels
Height : 720 pixels
Display aspect ratio : 16:9
Frame rate mode : Variable
Frame rate : 29.970 FPS
Color space : YUV
Chroma subsampling : 4:2:0
Bit depth : 8 bits
Scan type : Progressive
Bits/(Pixel*Frame) : 0.163
Stream size : 2.62 GiB (96%)
Color primaries : BT.709
Transfer characteristics : BT.709
Matrix coefficients : BT.709
Codec configuration box : avcC

WWE SmackDown

Audio
ID : 2
Format : AAC LC
Format/Info : Advanced Audio
Codec ID : mp4a-40-2
Duration : 1 h 23 min
Bit rate mode : Constant
Bit rate : 192 kb/s
Channel(s) : 2 channels
Channel layout : L R
Sampling rate : 48.0 kHz
Frame rate : 46.875 FPS (1024 SPF)
Compression mode : Lossy
Stream size : 115 MiB (4%)
Title : Stereo
Language : English
Default : Yes
Alternate group : 1

 

 

 

Watch WWE SmackDown 720p Free Full Show 2020 10 02

 

 

 

 

Watch online

 

 

 

 

 

Server 1

 

 

 

 

watch now

 

 

 

 

Server-2

 

 

 

WWE SmackDown

 

 

 

 

Server-3

 

 

 

WWE SmackDown

 

 

 

 

Uploaded By Site DX-TV.com

 

 

 

 

Download Free Links with normal and high Speed [ more 15 hosts ]  

 

 

 

http://shrt10.com/5yRib
http://shrt10.com/KteJycdr
http://shrt10.com/zkxOgq
http://shrt10.com/JLvK4
http://shrt10.com/3wLOjdmp
http://shrt10.com/Q0w8jYapn
http://shrt10.com/094SUHjQ
http://shrt10.com/Nwfxyq
http://shrt10.com/zhjPLIyv9

 

 

 

 

Download Links with premium High Speed   

 

 

 

 

 

Keep2Share

 

 

 

nitroflare.com

 

 

 

rapidgator.net

 

 

 

uploaded.net

 

 

 

uploadgig.com

 

 

 

 

 

dx-tv.com

 

urlfree.net

Leave a Reply

Your email address will not be published. Required fields are marked *

This site uses Akismet to reduce spam. Learn how your comment data is processed.