Watch WWE SmackDown 720p 10 07 2020 Free Online

WWE SmackDown 2020 07 10 720p HDTV NWCHD DX-TV

 

SmackDown Online

WWE SmackDown
 

 

Watch WWE SmackDown 720p 10 07 2020 Free Online

 

 

 

Complete name : WWE.Friday.Night.SmackDown.2020.07.10.720p.HDTV.x264-NWCHD.mp4
Format : MPEG-4
Format profile : Base Media
Codec ID : isom
File size : 2.75 GiB
Duration : 1 h 23 min
SmackDown Online rate : 4 717 kb/s
Writing application : Lavf58.27.103

WWE SmackDown 720p 10 07 2020 Free Online

Video
ID : 1
Format : AVC
Format/Info : Advanced Video Codec
profile : [email protected]
Format settings : CABAC / 4 Ref Frames
settings, CABAC : Yes
SmackDown Online : 4 frames
Codec ID : avc1
Codec ID/Info : Advanced Video Coding
Duration : 1 h 23 min
Bit rate : 4 500 kb/s
Width : 1 280 pixels
Height : 720 pixels
Display aspect ratio : 16:9
Frame rate mode : Variable
Frame rate : 29.970 (30000/1001) FPS
Minimum frame rate : 29.240 FPS
SmackDown Online rate : 29.970 FPS
Color space : YUV
Chroma subsampling : 4:2:0
Bit depth : 8 bits
Scan type : Progressive
Bits/(Pixel*Frame) : 0.163
Stream size : 2.63 GiB (96%)
Color range : Limited
Color primaries : BT.709
Transfer SmackDown Online: BT.709
Matrix coefficients : BT.709
Codec configuration box : avcC

WWE SmackDown 720p 10 07 2020 Free Online

Audio
ID : 2
Format : AAC LC
Format/Info : Complexity
Codec ID : mp4a-40-2
Duration : 1 h 23 min
Bit rate mode : Constant
Bit rate : 192 kb/s
Channel(s) : 2 channels
Channel layout : L R
Sampling rate : 48.0 kHz
Frame rate : 46.875 FPS (1024 SPF)
SmackDown Online mode : Lossy
Stream size : 115 MiB (4%)
Title : Stereo
Default : Yes
Alternate group : 1

 

Relive Braun Strowman and Bray Wyatt’s showdown at WWE Money in the Bank

 

It’s been a long and twisted road that has led Braun Strowman and Bray Wyatt back to the Swamp. On SmackDown this week, fans can catch the most recent in-ring chapter with a special presentation of the Universal Championship Match from WWE Money in the Bank.

Wyatt looked to reawaken Strowman’s past after The Monster Among Men reached the championship summit at WrestleMania 36. Relive the epic clash of mind games between the familiar foes with a special presentation of the match.

Tune in to Friday Night SmackDown on FOX at 8/7 C to catch the match that helped set the stage for the Wyatt Swamp Fight.

 

Watch WWE SmackDown 720p 10 07 2020 Free Online

 

 

 

Watch online

 

 

Server 1

 

 

 

 

watch now

 

 

 

 

Server 2

 

 

 

watch now

 

 

 

Server-3

 

 

 

SmackDown Online

 

 

 

Uploaded By Site DX-TV.com

 

 

 

Download with premium account Links 

 

 

Keep2Share

 

 

nitroflare.com

 

 

rapidgator.net

 

 

uploadgig.com

 

 

 

dx-tv.com

 

urlfree.net

Leave a Reply

Your email address will not be published. Required fields are marked *

This site uses Akismet to reduce spam. Learn how your comment data is processed.