Watch WWE SmackDown 2021 10 22 Replay

Watch WWE SmackDown 2021 10 22 720p/ 1080p Replay

 

Watch WWE SmackDown

 

 Watch WWE SmackDown

 

WWE SmackDown 2021 10 22 1080p Replay

added 1080p links

 

Download Links with High Speed

Dopapk

 

 

Show Links

 

 

 

 

Nitroflare

 

 

Show Links

 

 

http://shrt10.com/6Rh5bhu

http://shrt10.com/EmBxv6hdA

 

http://shrt10.com/WlKZVd

 

 

 

 

Rapidgator

 

 

Show Links

 

 

http://shrt10.com/Jf4kGEM1t

http://shrt10.com/62Il3

 

http://shrt10.com/1EMnKj

 

 

 

 

Uploaded

Show Links

 

 

http://shrt10.com/WpxvaH

http://shrt10.com/7zikA0

 

http://shrt10.com/d7p0S

 

 

 

 

 

Watch online

 

Server 1

 

 

 

 

watch now

 

 

 

 

Server-2

 

 

 

 

Watch WWE SmackDown

 

 

 

|Server-3

 

 

 

 

watch now

 

 

Uploaded By Site DX-TV.com

 

 

Open Info Show

 

 

Complete name : WWE.Friday.Night.SmackDown.2021.10.22.HDTV.x264-NWCHD.mp4
Format : MPEG-4
Format profile : Base Media
File size : 976 MiB
Duration : 1 h 24 min
Overall bit rate : 1 617 kb/s

Watch WWE SmackDown

Video
ID : 1
Format : AVC
Duration : 1 h 24 min
Bit rate : 1 400 kb/s
Maximum bit rate : 1 416 kb/s
Width : 704 pixels
Height : 400 pixels
Display aspect ratio : 16:9
Frame rate mode : Variable
Frame rate : 29.970 (30000/1001) FPS
Minimum frame rate : 22.539 FPS
Maximum frame rate : 29.970 FPS
Color space : YUV
Chroma subsampling : 4:2:0
Bit depth : 8 bits
Scan type : Progressive
Bits/(Pixel*Frame) : 0.166
Stream size : 855 MiB (88%)
Color primaries : BT.709
Transfer characteristics : BT.709
Matrix coefficients : BT.709
Codec configuration box : avcC

Watch WWE SmackDown

Audio
ID : 2
Format : AAC LC
Codec ID : mp4a-40-2
Duration : 1 h 24 min
Bit rate mode : Constant
Bit rate : 192 kb/s
Channel(s) : 2 channels
Channel layout : L R
Sampling rate : 48.0 kHz
Frame rate : 46.875 FPS (1024 SPF)
Compression mode : Lossy
Stream size : 116 MiB (12%)
Title : Stereo
Language : English
Default : Yes
Alternate group : 1

name : WWE.Friday.Night.SmackDown.2021.10.22.720p.HDTV.x264-NWCHD.mp4
Format : MPEG-4
Format profile : Base Media
Codec ID : isomp41)
File size : 2.80 GiB
Duration : 1 h 24 min
Overall bit rate : 4 748 kb/s

Watch WWE SmackDown

Video
ID : 1
Format : AVC
Duration : 1 h 24 min
Bit rate : 4 500 kb/s
Maximum bit rate : 4 548 kb/s
Width : 1 280 pixels
Height : 720 pixels
Display aspect ratio : 16:9
Frame rate mode : Variable
Frame rate : 29.970 (30000/1001) FPS
Minimum frame rate : 22.539 FPS
Maximum frame rate : 29.970 FPS
Color space : YUV
Chroma subsampling : 4:2:0
Bit depth : 8 bits
Scan type : Progressive
Bits/(Pixel*Frame) : 0.163
Stream size : 2.68 GiB (96%)
Color primaries : BT.709
Transfer characteristics : BT.709
Matrix coefficients : BT.709
Codec configuration box : avcC

Watch WWE SmackDown

Audio
ID : 2
Format : AAC LC
Codec ID : mp4a-40-2
Duration : 1 h 24 min
Bit rate mode : Constant
Bit rate : 192 kb/s
Channel(s) : 2 channels
Channel layout : L R
Sampling rate : 48.0 kHz
Frame rate : 46.875 FPS (1024 SPF)
Compression mode : Lossy
Stream size : 116 MiB (4%)
Title : Stereo
Language : English
Default : Yes
Alternate group : 1

 

 

https://dx-tv.com/

 

 

 

 

 

Leave a Reply

Your email address will not be published. Required fields are marked *

This site uses Akismet to reduce spam. Learn how your comment data is processed.