Watch WWE SmackDown 2021 10 15 Online Replay

Watch WWE SmackDown 2021 10 15 Online Replay DX-TV

Watch WWE SmackDown

 Watch WWE SmackDown

 

 

 

Download Links with High Speed
 


Dopapk

 

 

Show Links

 

 

 

 

Nitroflare

 

 

Show Links

 

 

http://shrt10.com/cVRTTudk
http://shrt10.com/AEgZcOPo0
http://shrt10.com/IkGbQtR

 

 

 

 

Rapidgator

 

 

Show Links

 

 

http://shrt10.com/ZkyTTSZ
http://shrt10.com/cj1lPtp
http://shrt10.com/s7d5yTUf

 

 

 

 

 

Uploaded
 

 

Show Links

 

 

http://shrt10.com/hy4WNX
http://shrt10.com/E1Bov

 

 

 

 

 

 

 

Watch online

 

Server 1

 

 

 

 

watch now

 

 

 

 

Server-2

 

 

 

 

Watch WWE SmackDown

 

 

 

|Server-3

 

 

 

 

watch now

 

 

Uploaded By Site DX-TV.com

 

 

Open Info Show

Watch WWE SmackDown

Sasha Banks def. Becky Lynch
Prior to her Triple Threat Match for the SmackDown Women’s Championship at WWE Crown Jewel against Bianca Belair and Becky Lynch, The Boss engaged in an incredible Championship Contender showdown against The Man in which both Superstars left everything they had on the canvas.

In the final moments of their pay-per-view caliber matchup, Lynch reached out for the ring apron. However, when she did, Belair left her place from the SmackDown commentary desk and lashed out at Lynch with her hair. Although she missed her mark, the distraction allowed Banks to roll up her opponent and pick up a rare victory over The Ma

 

Watch WWE SmackDown

Complete name : WWE.Supersized.SmackDown.2021.10.15.720p.HDTV.x264-NWCHD.mp4
Format : MPEG-4
Format profile : Base Media
File size : 3.82 GiB
Duration : 1 h 56 min
Overall bit rate : 4 719 kb/s

Video
ID : 1
Format : AVC
Duration : 1 h 56 min
Bit rate : 4 525 kb/s
Width : 1 280 pixels
Height : 720 pixels
Display aspect ratio : 16:9
Frame rate mode : Variable
Frame rate : 29.970 (30000/1001) FPS
Minimum frame rate : 15.512 FPS
Maximum frame rate : 29.970 FPS
Color space : YUV
Chroma subsampling : 4:2:0
Bit depth : 8 bits
Scan type : Progressive
Bits/(Pixel*Frame) : 0.164
Stream size : 3.66 GiB (96%)
Color primaries : BT.709
Transfer characteristics : BT.709
Matrix coefficients : BT.709
Codec configuration box : avcC

Watch WWE SmackDown

Audio
ID : 2
Format : AAC LC
Codec ID : mp4a-40-2
Duration : 1 h 56 min
Bit rate mode : Constant
Bit rate : 192 kb/s
Channel(s) : 2 channels
Channel layout : L R
Sampling rate : 48.0 kHz
Frame rate : 46.875 FPS (1024 SPF)
Compression mode : Lossy
Stream size : 159 MiB (4%)
Title : Stereo
Language : English
Default : Yes
Alternate group : 1

Watch WWE SmackDown

Complete name : WWE.Supersized.SmackDown.2021.10.15.1080p.HDTV.x264-NWCHD.mp4
Format : MPEG-4
Format profile : Base Media
File size : 6.67 GiB
Duration : 1 h 56 min
Overall bit rate : 8 235 kb/s

Video
ID : 1
Format : AVC
Duration : 1 h 56 min
Bit rate : 8 043 kb/s
Width : 1 920 pixels
Height : 1 080 pixels
Display aspect ratio : 16:9
Frame rate mode : Variable
Frame rate : 29.970 (30000/1001) FPS
Minimum frame rate : 15.512 FPS
Maximum frame rate : 29.970 FPS
Color space : YUV
Chroma subsampling : 4:2:0
Bit depth : 8 bits
Scan type : Progressive
Bits/(Pixel*Frame) : 0.129
Stream size : 6.51 GiB (98%)
Color primaries : BT.709
Transfer characteristics : BT.709
Matrix coefficients : BT.709
Codec configuration box : avcC

Watch WWE SmackDown

Audio
ID : 2
Format : AAC LC
Codec ID : mp4a-40-2
Duration : 1 h 56 min
Bit rate mode : Constant
Bit rate : 192 kb/s
Channel(s) : 2 channels
Channel layout : L R
Sampling rate : 48.0 kHz
Frame rate : 46.875 FPS (1024 SPF)
Compression mode : Lossy
Stream size : 159 MiB (2%)
Title : Stereo
Language : English
Default : Yes
Alternate group : 1

 

 

https://dx-tv.com/

 

 

 

 

 

Leave a Reply

Your email address will not be published. Required fields are marked *

This site uses Akismet to reduce spam. Learn how your comment data is processed.