Watch WWE SmackDown 2020 02 07 720p

Watch WWE SmackDown 2020 02 07 720p NWCHD DX-TV

 

 

 wwe SmackDown

 

 

 

 

Watch WWE SmackDown 2020 02 07 720p

 

 WWE SmackDown 720p
Complete name : WWE.Friday.Night.SmackDown.2020.02.07.720p.HDTV.x264-NWCHD.mp4
Format : MPEG-4
Format profile : Base Media
Codec ID : isom
File size : 2.82 GiB
Duration : 1 h 26 min
Overall bit rate : 4 650 kb/s
Writing application : Lavf58.27.103

Video
ID : 1
Format : AVC
Duration : 1 h 26 min
Bit rate : 4 500 kb/s
Width : 1 280 pixels
Height : 720 pixels
Display aspect ratio : 16:9
Frame rate mode : Variable
Frame rate : 29.970 (30000/1001) FPS
Minimum frame rate : 18.182 FPS
Maximum frame rate : 29.970 FPS
Color space : YUV
Chroma subsampling : 4:2:0
Bit depth : 8 bits
Scan type : Progressive
Bits/(Pixel*Frame) : 0.163
Stream size : 2.70 GiB (96%)
Color primaries : BT.709
Transfer characteristics : BT.709
Matrix coefficients : BT.709
Codec configuration box : avcC

Audio
ID : 2
Format : AAC LC
Codec ID : mp4a-40-2
Duration : 1 h 26 min
Bit rate mode : Constant
Bit rate : 192 kb/s
Channel(s) : 2 channels
Channel layout : L R
Sampling rate : 48.0 kHz
Frame rate : 46.875 FPS (1024 SPF)
Compression mode : Lossy
Stream size : 119 MiB (4%)
Title : Stereo
Default : Yes
Alternate group : 1

 

 

Watch online

 

 

 

Server 1

 

 

watch now

 

 

 

Watch WWE SmackDown 2020 02 07 720p

 

 

 

Uploaded By Site DX-TV.com

 

 

 

 

 

1fichier.com 

 

dl.free.fr

 

 

earn4files.com

 

 

Download with premium account Links 

 

 

Keep2Share

 

 

nitroflare.com

 

 

rapidgator.net

 

 

uploadgig.com

 

https://dx-tv.com/watch-wwe-smackdown-12-20-2019-live/

 

dx-tv.com