Watch WWE SmackDown 2020 01 24 720p

Watch WWE SmackDown 2020 01 24 720p Star DX-TV

 

 

WWE SmackDown

 

 

 

 

dx-tv.com

 

 

 

 

Watch WWE SmackDown 2020 01 24 720p

 

 

 

 
Complete name : WWE.SmackDown.2020.01.24.720p.HDTV.x264-Star.mkv
Format : Matroska
Format version : Version 4
File size : 3.45 GiB
Duration : 1 h 27 min
Overall bit rate : 5 651 kb/s
Writing library : Lavf58.29.100
ErrorDetectionType : Per level 1

Video
ID : 1
Format : AVC
Codec ID : V_MPEG4/ISO/AVC
Duration : 1 h 27 min
Bit rate : 5 500 kb/s
Width : 1 280 pixels
Height : 720 pixels
Display aspect ratio : 16:9
Frame rate mode : Constant
Frame rate : 25.000 FPS
Color space : YUV
Chroma subsampling : 4:2:0
Bit depth : 8 bits
Scan type : Progressive
Bits/(Pixel*Frame) : 0.239
Stream size : 3.27 GiB (95%)
Color range : Limited
Color primaries : BT.709
Transfer characteristics : BT.709
Matrix coefficients : BT.709

Audio
ID : 2
Format : AC-3
Codec ID : A_AC3
Duration : 1 h 27 min
Bit rate mode : Constant
Bit rate : 192 kb/s
Channel(s) : 2 channels
Channel layout : L R
Sampling rate : 48.0 kHz
Frame rate : 31.250 FPS (1536 SPF)
Compression mode : Lossy
Delay relative to video : -5 ms
Stream size : 120 MiB (3%)
Title : Stereo
Language : any
Service kind : Complete Main
Default : Yes
Forced : No

 

 

Two weeks ago, Alexa Bliss lost to Mandy Rose after being distracted by Otis coming out to the ring with the cake Mandy had given him. One week later, 

Sonya Deville asked Mandy to invite Otis to the ring to assist her as well, but that backfired when Sonya lost focus over Mandy getting knocked off

the apron into Otis’s arms and caused her to lose her match

This week, although both Fire & Desire and Bliss & Cross were looking for a decisive “tie-breaking” victory, it was not to be. Just seconds

after the tag team match began, the continued brawl between Evans and Bayley interrupted the action, ending the match in a No Contest and leading to all six Superstars brawling it out

 

 

Watch online

 

Server 1

 

 

watch now

 

 

Watch WWE SmackDown 2020 01 24 720p

 

 

 

Uploaded By Site DX-TV.com

 

 

 

 

 

Download VIP Members FTP server Download 1 Link and Free Links 

 

 

 

Limited Time will be removed after 90 days if you need available again pm email admin

 

[member]

FTP Link Download high speed

[/member]

1fichier.com 

 

 

 

earn4files.com

 

 

filerio.in

 

 

 

 

Download with premium account Links 

 

 

nitroflare.com

 

 

rapidgator.net

 

 

uploaded.net

 

 

 

 

 

 

 

You May Also Like