Watch WWE SmackDown 2020 01 03 Star Free FTP server

Watch Online WWE SmackDown 2020 01 03 HDTV Star Download for Free FTP server DX-TV

 

 

WWE SmackDown

 

 

 

 

dx-tv.com

 

 

 

 

Watch WWE SmackDown 2020 01 03 Star Free FTP server

 

 

 

 

 

Complete name : WWE.SmackDown.2020.01.03.HDTV.x264-Star.mp4
Format : MPEG-4
Format profile : Base Media / Version 2
Codec ID : mp42 (isom/iso2/avc1/mp41)
File size : 1.02 GiB
Duration : 1 h 27 min
Overall bit rate : 1 667 kb/s
Encoded date : UTC 2020-01-04 05:06:39
Tagged date : UTC 2020-01-04 05:06:39

Video
ID : 1
Format : AVC
Format/Info : Advanced Video Codec
Codec ID : avc1
Codec ID/Info : Advanced Video Coding
Duration : 1 h 27 min
Bit rate : 1 500 kb/s
Width : 720 pixels
Height : 406 pixels
Display aspect ratio : 16:9
Frame rate mode : Constant
Frame rate : 25.000 FPS
Color space : YUV
Chroma subsampling : 4:2:0
Bit depth : 8 bits
Scan type : Progressive
Bits/(Pixel*Frame) : 0.205
Stream size : 942 MiB (90%)
Color range : Limited
Color primaries : BT.601 PAL
Transfer characteristics : BT.709
Matrix coefficients : BT.601
Codec configuration box : avcC

Audio
ID : 2
Format : AAC LC
Format/Info : Advanced Audio Codec Low Complexity
Codec ID : mp4a-40-2
Duration : 1 h 27 min
Bit rate mode : Constant
Bit rate : 159 kb/s
Channel(s) : 2 channels
Channel layout : L R
Sampling rate : 48.0 kHz
Frame rate : 46.875 FPS (1024 SPF)
Compression mode : Lossy
Stream size : 99.9 MiB (10%)
Title : Stereo
Language : any
Default : Yes
Alternate group : 1
Encoded date : UTC 2020-01-04 05:06:39
Tagged date : UTC 2020-01-04 05:06:39

 

 

 

 

 

 

Watch online

 

 

Server 1

 

 

watch now

 

 

 

 

Watch WWE SmackDown 2020 01 03 Star Free FTP server

 

 

 

Uploaded By Site DX-TV.com

 

 

 

 

 

Download VIP Members FTP server Download 1 Link and Free Links 

 

 

 

Limited Time will be removed after 90 days if you need available again pm email admin

 

 

 

FTP Link Download high speed

 

 

 

 

1fichier.com 

 

 

dailyuploads.net

 

 

dl.free.fr

 

 

katfile.com

 

 

rockfile.co

 

 

Ubloadbank.com

 

 

 

 

Download with premium account Links 

 

 

earn4files.com

 

 

nitroflare.com

 

 

rapidgator.net

 

 

uploaded.net