Watch WWE SmackDown 2019 11 29 720p

Watch WWE SmackDown 2019 11 29 720p HEEL DX-TV

 

 

 

WWE SmackDown

 

 

 

 

dx-tv.com

 

 

 

 

Watch WWE SmackDown 2019 11 29 720p

 

 

 

 

 

Complete name : WWE.SmackDown.2019.11.29.720p.WEB.h264-HEEL.mp4
Format : MPEG-4
Format profile : Base Media
File size : 3.40 GiB
Duration : 1 h 26 min
Overall bit rate mode : Constant
Overall bit rate : 5 610 kb/s

Video
ID : 1
Format : AVC
Duration : 1 h 26 min
Bit rate mode : Constant
Bit rate : 5 469 kb/s
Width : 1 280 pixels
Height : 720 pixels
Display aspect ratio : 16:9
Frame rate mode : Variable
Frame rate : 59.940 (60000/1001) FPS
Minimum frame rate : 41.021 FPS
Maximum frame rate : 60.443 FPS
Standard : Component
Color space : YUV
Chroma subsampling : 4:2:0
Bit depth : 8 bits
Scan type : Progressive
Bits/(Pixel*Frame) : 0.099
Stream size : 3.31 GiB (98%)
Color range : Limited
Color primaries : BT.709
Transfer characteristics : BT.709
Matrix coefficients : BT.709
Codec configuration box : avcC

Audio
ID : 2
Format : AAC LC
Codec ID : mp4a-40-2
Duration : 1 h 26 min
Bit rate mode : Constant
Bit rate : 125 kb/s
Channel(s) : 2 channels
Channel layout : L R
Sampling rate : 48.0 kHz
Frame rate : 46.875 FPS (1024 SPF)
Compression mode : Lossy
Stream size : 77.8 MiB (2%)
Default : Yes
Alternate group : 1

 

 

 

 

 

 

Watch online

 

 

Waiting finish converting video

 

 

Server 1

 

 

 

 

 

 

 

watch now

 

 

 

 

 

 

Server – 2

 

 

 

 

 

watch now

 

 

 

 

 

Server–3

 

 

 

 

 

 

 

 

 

 

Server-  4

 

 

 

 

 

 

 

 

 

 

Uploaded By Site DX-TV.com

 

 

 

 

 

Watch WWE SmackDown 2019 11 29 720p

 

 

 

 

 

 

Recommended For Free

 

 

 

 

earn4files.com

 

 

 

Download with high speed Premium account

 

 

 

 

nitroflare.com

 

rapidgator.net

 

 

uploaded.net

 

 

 

 

 

 

 

 

 

 

Categories

Earn money $25 as per 1000

103