Watch WWE SmackDown 2019 11 29 720p Star

Watch WWE SmackDown 2019 11 29 720p Star DX-TV

 

 

WWE RAW

 

 

 

 

dx-tv.com

 

 

 

 

Watch WWE SmackDown 2019 11 29 720p Star

 

 

 

 

 

Complete name : WWE.SmackDown.2019.11.29.720p.HDTV.x264-Star.mkv
Format : Matroska
Format version : Version 4
File size : 6.30 GiB
Duration : 1 h 27 min
Overall bit rate : 10.3 Mb/s

Video
ID : 1
Format : AVC
Duration : 1 h 27 min
Bit rate : 10 000 kb/s
Width : 1 280 pixels
Height : 720 pixels
Display aspect ratio : 16:9
Frame rate mode : Constant
Frame rate : 50.000 FPS
Color space : YUV
Chroma subsampling : 4:2:0
Bit depth : 8 bits
Scan type : Progressive
Bits/(Pixel*Frame) : 0.217
Stream size : 5.94 GiB (94%)
Forced : No
Color range : Limited
Color primaries : BT.709
Transfer characteristics : BT.709
Matrix coefficients : BT.709

Audio
ID : 2
Format : AC-3
Commercial name : Dolby Digital
Codec ID : A_AC3
Duration : 1 h 27 min
Bit rate mode : Constant
Bit rate : 384 kb/s
Channel(s) : 2 channels
Channel layout : L R
Sampling rate : 48.0 kHz
Frame rate : 31.250 FPS (1536 SPF)
Compression mode : Lossy
Delay relative to video : -5 ms
Stream size : 240 MiB (4%)
Title : Stereo
Default : Yes
Forced : No

 

 

 

 

 

 

Watch online

 

 

Waiting finish converting video

 

 

Server 1

 

 

 

 

 

 

 

watch now

 

 

 

 

 

 

Server 2

 

 

 

 

 

 

 

watch now

 

 

 

 

 

 

 

 

Uploaded By Site DX-TV.com

 

 

 

 

 

Watch WWE SmackDown 2019 11 29 720p Star

 

 

 

 

 

 

Recommended For Free

 

 

 

 

earn4files.com

 

 

 

 

Download with high speed Premium account

 

 

 

 

nitroflare.com

 

 

rapidgator.net

 

 

 

Categories

Earn money $25 as per 1000

103