Watch WWE SmackDown 06 NOV 2020 Free 720p/ 1080p

Watch WWE Friday Night SmackDown 2020 11 06 720p /1080p HDTV Star DX-TV

WWE SmackDown 06 NOV 2020

 

 WWE SmackDown 06 NOV 2020

 

Watch WWE SmackDown 06 NOV 2020 Free 720p/ 1080p

 

Complete name : WWE.Friday.Night.SmackDown.2020.11.06.720p.HDTV.x264-Star.mkv
Format : Matroska
Format version : Version 4
File size : 3.18 GiB
Duration : 1 h 27 min
Overall bit rate : 5 221 kb/s
Writing library : Lavf58.29.100

WWE SmackDown 06 NOV 2020

Video
ID : 1
Format : AVC
Duration : 1 h 27 min
Bit rate : 5 000 kb/s
Width : 1 280 pixels
Height : 720 pixels
Display aspect ratio : 16:9
Frame rate mode : Constant
Frame rate : 29.970 FPS
Color space : YUV
Chroma subsampling : 4:2:0
Bit depth : 8 bits
Scan type : Progressive
Bits/(Pixel*Frame) : 0.181
Stream size : 3.00 GiB (94%)
Color range : Limited
Color primaries : BT.709
Transfer characteristics : BT.709
Matrix coefficients : BT.709

WWE SmackDown 06 NOV 2020

Audio
ID : 2
Format : AC-3
Format/Info : Audio Coding 3
Commercial name : Dolby Digital
Codec ID : A_AC3
Duration : 1 h 27 min
Bit rate mode : Constant
Bit rate : 192 kb/s
Channel(s) : 2 channels
Channel layout : L R
Sampling rate : 48.0 kHz
Frame rate : 31.250 FPS
Compression mode : Lossy
Delay relative to video : -5 ms
Stream size : 120 MiB (4%)
Title : Stereo
Service kind : Complete Main
Default : Yes
Forced : No

WWE SmackDown 06 NOV 2020

Jey Uso def. Kevin Owens 
After it was determined by Universal Champion Roman Reigns that Kevin Owens had disrespected Jey Uso — and by extension, the entire family.

The Big Dog ordered his cousin to handle the situation in a one-on-one matchup against KO.

When Roman didn’t like what he was seeing in the match, he sent Paul Heyman out to ringside.

Heyman’s presence definitely promoted Uso to increase his aggression.

Then, when Roman’s music suddenly blasted through the WWE Thunder Dome.

Uso took the opportunity to strike Owens with a nefarious low blow before sealing the win with the Uso Splash off the top rope. 

As SmackDown went off the air, Roman emerged to put his arm on his cousin’s shoulder and raise his Universal Title high in the air.

 

Watch WWE SmackDown 06 NOV 2020 Free 720p/ 1080p

 

 

 

 

Watch online

 

 

 

 

 

Server 1

 

 

 

 

WWE SmackDown 06 NOV 2020

 

 

 

 

Server-2

 

 

 

watch now

 

 

 

 

 

 

Uploaded By Site DX-TV.com

 

 

 

 

Download Free Links with normal and high Speed [ more 14 hosts ]  

 

 

 

http://shrt10.com/UF5Tf8tW
http://shrt10.com/Abi7mS
http://shrt10.com/7zaNF
http://shrt10.com/CvvPU
http://shrt10.com/LJuIj
http://shrt10.com/lDGFQ

 

 

 

 

Download Links with premium High Speed   

 

 

 

 

dropapk.to

 

 

 

nitroflare.com

 

 

 

rapidgator.net

 

 

 

uploaded.net

 

 

 

uploadgig.com

 

 

WWE SmackDown 06 NOV 2020

 

1080p

 

nitroflare.com

 

 

 

rapidgator.net

 

 

 

 

dx-tv.com

 

urlfree.net

Leave a Reply

Your email address will not be published. Required fields are marked *

This site uses Akismet to reduce spam. Learn how your comment data is processed.