Watch WWE Royal Rumble 2021 WEB DX-TV

Watch WWE Royal Rumble 2021 480p /720p /1080p WEB DX-TV

Watch WWE Royal Rumble 2021

 WWE Royal Rumble 2021

 

Download Links with premium High Speed   

 

 

dropapk.to

http://shrt10.com/M5PHF

http://shrt10.com/LFLUC4EHE
http://shrt10.com/8JNFb8  1080p

 

nitroflare.com

http://shrt10.com/s3EawA     1080p

http://shrt10.com/Eqx6hj2N

http://shrt10.com/9iFzeTo

 

 

rapidgator.net

http://shrt10.com/jmjsXeZzN
http://shrt10.com/HqH9yjC
http://shrt10.com/NsdR2ci4

 

 

uploaded.net

http://shrt10.com/jm0b3Qo4S

http://shrt10.com/yLE2Nqa   1080p
http://shrt10.com/1ph4R      1080p

 

http://shrt10.com/WB90PDOkl
http://shrt10.com/30CIS1

 

Watch WWE Royal Rumble 2021 online

 

Server 1

 

 

 

 

WWE Royal Rumble 2021

 

 

 

 

Server-2

 

 

 

 

watch now

 

 

Uploaded By Site DX-TV.com

 

 

Complete name : WWE.Royal.Rumble.2021.1080p.WEB H264 DX-TV.mkv
Format : Matroska
Format version : Version 4
File size : 7.16 GiB
Duration : 3 h 47 min
Overall bit rate mode : Variable
Overall bit rate : 4 506 kb/s

Watch WWE Royal Rumble

Video
ID : 1
Format : AVC
Format/Info : Advanced Video
Duration : 3 h 47 min
Bit rate mode : Variable
Bit rate : 4 449 kb/s
Maximum bit rate : 5 000 kb/s
Width : 1 920 pixels
Height : 1 080 pixels
Display aspect ratio : 16:9
Frame rate mode : Variable
Frame rate : 22.568 FPS
Original frame rate : 25.000 FPS
Standard : Component
Color space : YUV
Chroma subsampling : 4:2:0
Bit depth : 8 bits
Scan type : Progressive
Bits/(Pixel*Frame) : 0.095
Stream size : 7.07 GiB (99%)
Default : Yes
Forced : No
Color range : Limited
Color primaries : BT.709
Transfer characteristics : BT.709
Matrix coefficients : BT.709

Watch WWE Royal Rumble

Audio
ID : 2
Format : AAC LC SBR
Commercial name : HE-AAC
Format settings : Implicit
Codec ID : A_AAC-2
Duration : 3 h 47 min
Bit rate : 56.4 kb/s
Channel(s) : 2 channels
Channel layout : L R
Sampling rate : 48.0 kHz
Frame rate : 23.438 FPS (2048 SPF)
Compression mode : Lossy
Delay relative to video : -1 s 878 ms
Stream size : 91.7 MiB (1%)
Default : Yes
Forced : No

 

General
Complete name : WWE.Royal.Rumble.2021.WEB H264 DX-TV.mp4
Format : MPEG-4
Format profile : Base Media
Codec ID : isom (isom/iso2/avc1/mp41)
File size : 2.81 GiB
Duration : 3 h 50 min
Overall bit rate mode : Variable
Overall bit rate : 1 747 kb/s
Law rating : N/A
Encoded date : UTC 1970-01-01 00:00:00
Tagged date : UTC 2021-02-01 13:00:11
Writing application : Lavf53.24.2

Video
ID : 1
Format : AVC
Format/Info : Advanced Video 
Duration : 3 h 50 min
Bit rate mode : Variable
Bit rate : 1 614 kb/s
Maximum bit rate : 1 663 kb/s
Width : 896 pixels
Height : 504 pixels
Display aspect ratio : 16:9
Frame rate mode : Variable
Frame rate : 30.000 FPS
Minimum frame rate : 29.412 FPS
Maximum frame rate : 30.303 FPS
Standard : NTSC
Color space : YUV
Chroma subsampling : 4:2:0
Bit depth : 8 bits
Scan type : Progressive
Bits/(Pixel*Frame) : 0.119
Stream size : 2.59 GiB (92%)
Encoded date : UTC 1970-01-01 00:00:00
Tagged date : UTC 1970-01-01 00:00:00
Color range : Limited
Color primaries : BT.709
Transfer characteristics : BT.709
Matrix coefficients : BT.709
Codec configuration box : avcC

Watch WWE Royal Rumble

Audio
ID : 2
Format : AAC LC
Format/Info : Advanced Audio Codec Low Complexity
Codec ID : mp4a-40-2
Duration : 3 h 50 min
Bit rate mode : Variable
Bit rate : 125 kb/s
Maximum bit rate : 133 kb/s
Channel(s) : 2 channels
Channel layout : L R
Sampling rate : 48.0 kHz
Frame rate : 46.875 FPS (1024 SPF)
Compression mode : Lossy
Stream size : 206 MiB (7%)
Default : Yes
Alternate group : 1
Encoded date : UTC 1970-01-01 00:00:00
Tagged date : UTC 1970-01-01 00:00:00

Text #1
ID : 1-CC1
Format : EIA-608
Muxing mode : SCTE 128 / DTVCC Transport
Muxing mode, more info : Muxed in Video #1
Duration : 3 h 50 min
Bit rate mode : Constant
Stream size : 0.00 Byte (0%)
CaptionServiceName : CC1

Watch WWE Royal Rumble

Text #2
ID : 1-CC3
Format : EIA-608
Muxing mode : SCTE 128 / DTVCC Transport
Muxing mode, more info : Muxed in Video #1
Duration : 3 h 50 min
Bit rate mode : Constant
Stream size : 0.00 Byte (0%)
CaptionServiceName : CC3

Text #3
ID : 1-1
Format : EIA-708
Muxing mode : SCTE 128 / DTVCC Transport
Muxing mode, more info : Muxed in Video #1
Duration : 3 h 50 min
Bit rate mode : Constant
Stream size : 0.00 Byte (0%)

Text #4
ID : 1-2
Format : EIA-708
Muxing mode : SCTE 128 / DTVCC Transport
Muxing mode, more info : Muxed in Video #1
Duration : 3 h 50 min
Bit rate mode : Constant
Stream size : 0.00 Byte (0%)

Watch WWE Royal Rumble

Text #5
ID : 1-3
Format : EIA-708
Muxing mode : SCTE 128 / DTVCC Transport
Muxing mode, more info : Muxed in Video #1
Duration : 3 h 50 min
Bit rate mode : Constant
Stream size : 0.00 Byte (0%)

Text #6
ID : 1-4
Format : EIA-708
Muxing mode : SCTE 128 / DTVCC Transport
Muxing mode, more info : Muxed in Video #1
Duration : 3 h 50 min
Bit rate mode : Constant
Stream size : 0.00 Byte (0%)

Text #7
ID : 1-5
Format : EIA-708
Muxing mode : SCTE 128 / DTVCC Transport
Muxing mode, more info : Muxed in Video #1
Duration : 3 h 50 min
Bit rate mode : Constant
Stream size : 0.00 Byte (0%)

Text #8
ID : 1-6
Format : EIA-708
Muxing mode : SCTE 128 / DTVCC Transport
Muxing mode, more info : Muxed in Video #1
Duration : 3 h 50 min
Bit rate mode : Constant
Stream size : 0.00 Byte (0%)

 WWE Royal Rumble

Complete name : WWE.Royal.Rumble.2021.720p.WEB H264 DX-TV.mp4
Format : MPEG-4
Format profile : Base Media
Codec ID : isom
File size : 5.16 GiB
Duration : 3 h 50 min
Overall bit rate mode : Variable
Overall bit rate : 3 214 kb/s
Law rating : N/A
Writing application : Lavf53.24.2

Video
ID : 1
Format : AVC
Format/Info : Advanced Video
Duration : 3 h 50 min
Bit rate mode : Variable
Bit rate : 3 078 kb/s
Maximum bit rate : 3 159 kb/s
Width : 1 280 pixels
Height : 720 pixels
Display aspect ratio : 16:9
Frame rate mode : Variable
Frame rate : 30.000 FPS
Minimum frame rate : 29.412 FPS
Maximum frame rate : 30.303 FPS
Standard : NTSC
Color space : YUV
Chroma subsampling : 4:2:0
Bit depth : 8 bits
Scan type : Progressive
Bits/(Pixel*Frame) : 0.111
Stream size : 4.95 GiB (96%)
Encoded date : UTC 1970-01-01 00:00:00
Tagged date : UTC 1970-01-01 00:00:00
Color range : Limited
Color primaries : BT.709
Transfer characteristics : BT.709
Matrix coefficients : BT.709
Codec configuration box : avc

Watch WWE Royal Rumble

Audio
ID : 2
Format : AAC LC
Format/Info : Advanced Audio
Codec ID : mp4a-40-2
Duration : 3 h 50 min
Bit rate mode : Variable
Bit rate : 125 kb/s
Maximum bit rate : 133 kb/s
Channel(s) : 2 channels
Channel layout : L R
Sampling rate : 48.0 kHz
Frame rate : 46.875 FPS (1024 SPF)
Compression mode : Lossy
Stream size : 206 MiB (4%)
Default : Yes
Alternate group : 1
Encoded date : UTC 1970-01-01 00:00:00
Tagged date : UTC 1970-01-01 00:00:00

Text #1
ID : 1-CC1
Format : EIA-608
Muxing mode : SCTE 128 / DTVCC Transport
Muxing mode, more info : Muxed in Video #1
Duration : 3 h 50 min
Bit rate mode : Constant
Stream size : 0.00 Byte (0%)
CaptionServiceName : CC1

Watch WWE Royal Rumble

Text #2
ID : 1-CC3
Format : EIA-608
Muxing mode : SCTE 128 / DTVCC Transport
Muxing mode, more info : Muxed in Video #1
Duration : 3 h 50 min
Bit rate mode : Constant
Stream size : 0.00 Byte (0%)
CaptionServiceName : CC3

Text #3
ID : 1-1
Format : EIA-708
Muxing mode : SCTE 128 / DTVCC Transport
Muxing mode, more info : Muxed in Video #1
Duration : 3 h 50 min
Bit rate mode : Constant
Stream size : 0.00 Byte (0%)

Text #4
ID : 1-2
Format : EIA-708
Muxing mode : SCTE 128 / DTVCC Transport
Muxing mode, more info : Muxed in Video #1
Duration : 3 h 50 min
Bit rate mode : Constant
Stream size : 0.00 Byte (0%)

Text #5
ID : 1-3
Format : EIA-708
Muxing mode : SCTE 128 / DTVCC Transport
Muxing mode, more info : Muxed in Video #1
Duration : 3 h 50 min
Bit rate mode : Constant
Stream size : 0.00 Byte (0%)

Text #6
ID : 1-4
Format : EIA-708
Muxing mode : SCTE 128 / DTVCC Transport
Muxing mode, more info : Muxed in Video #1
Duration : 3 h 50 min
Bit rate mode : Constant
Stream size : 0.00 Byte (0%)

Text #7
ID : 1-5
Format : EIA-708
Muxing mode : SCTE 128 / DTVCC Transport
Muxing mode, more info : Muxed in Video #1
Duration : 3 h 50 min
Bit rate mode : Constant
Stream size : 0.00 Byte (0%)

Watch WWE Royal Rumble

Text #8
ID : 1-6
Format : EIA-708
Muxing mode : SCTE 128 / DTVCC Transport
Muxing mode, more info : Muxed in Video #1
Duration : 3 h 50 min
Bit rate mode : Constant
Stream size : 0.00 Byte (0%)

 

 

 

 

 

 

 

 

 

https://dx-tv.com/

You May Also Like

Leave a Reply

Your email address will not be published. Required fields are marked *

This site uses Akismet to reduce spam. Learn how your comment data is processed.