Watch WWE Royal Rumble 2018 PPV WEB HEEL /720p

Watch WWE Royal Rumble 2018 PPV WEB HEEL /720p

 

 

 

 

 

 

wwe

 

 

 

 

 

 

 

Title: WWE.Royal.Rumble.2018.PPV.WEB.h264-HEEL
Released: 2018.01.28
Source: WWE Network
Resolution: 896 x 504 @ 29.970 FPS
Video: H.264 @ 1800 kbps
Audio: AAC @ 96 kbps
Size: 3.19 GB
Runtime: 4h 13mn
 

 

 

 

 

 

Complete name : WWE.Royal.Rumble.2018.PPV.720p.WEB.h264-HEEL.mp4
Format : MPEG-4
Format profile : Base Media
Codec ID : isom
File size : 7.97 GiB
Duration : 4h 13mn
Overall bit rate : 4 508 Kbps
Writing application : Lavf58.2.103

Video
ID : 1
Format : AVC
Format/Info : Advanced Video Codec
Codec ID : avc1
Codec ID/Info : Advanced Video Coding
Duration : 4h 13mn
Bit rate mode : Constant
Bit rate : 4 372 Kbps
Width : 1 280 pixels
Height : 720 pixels
Display aspect ratio : 16:9
Frame rate mode : Constant
Frame rate : 29.970 fps
Color space : YUV
Chroma subsampling : 4:2:0
Bit depth : 8 bits
Scan type : Progressive
Bits/(Pixel*Frame) : 0.158
Stream size : 7.73 GiB (97%)

Audio
ID : 2
Format : AAC
Format/Info : Advanced Audio Codec
Format profile : LC
Codec ID : 40
Duration : 4h 13mn
Bit rate mode : Variable
Bit rate : 125 Kbps
Maximum bit rate : 134 Kbps
Channel(s) : 2 channels
Channel positions : Front: L R
Sampling rate : 48.0 KHz
Compression mode : Lossy
Stream size : 227 MiB (3%)
Language : English

 

 

 

 

 

 

 

 

 

Watch WWE Royal Rumble 2018 PPV WEB HEEL /720p

 

 

 

 

Watch online

 

 

Waiting finish converting video

 

 

Server 1

 

 

 

 

 

 

 

 

 

 

 

 

 

 

 

 

 

 

 

 

 

Server 2

 

 

 

 

 

 

 

 

 

 


 

Uploaded By Site DX-TV.com

 

 

 

open rar file to see this password

 

 

 

 

The password is : DX-TV.com

 

 

 

 

400p+720p

 

 

 

 

 

Uploaded.net + rapidgator.net

 

 

 

 

 

 

 

http://shrt10.com/W0X2Bq

 

 

 

http://shrt10.com/zwkMRNI

 

 

 

 

http://shrt10.com/D7GnD

 

 

http://shrt10.com/q1OQ

 

 

http://shrt10.com/Z6GSyGG

 

 

http://shrt10.com/af3K

 

 

http://shrt10.com/uV9o

 

 

http://shrt10.com/zldLMst

 

 

 

 

 

 

 

 

Watch WWE Royal Rumble 2018 PPV WEB HEEL /720p