Watch WWE Royal Rumble 2018 PPV HDTV Ebi /720p

Watch WWE Royal Rumble 2018 PPV HDTV Ebi /720p

 

 

 

 

 

wwe

 

 

 

 

 

 

Complete name : WWE.Royal.Rumble.2018.PPV.HDTV.x264-Ebi.mp4
Format : MPEG-4
Format profile : Base Media / Version 2
Codec ID : mp42
File size : 2.59 GiB
Duration : 4h 13mn
Overall bit rate : 1 466 Kbps
Encoded date : UTC 2018-01-29 04:58:35
Tagged date : UTC 2018-01-29 04:58:35

Video
ID : 1
Format : AVC
Format/Info : Advanced Video Codec
Codec ID : avc1
Codec ID/Info : Advanced Video Coding
Duration : 4h 13mn
Bit rate mode : Variable
Bit rate : 1 300 Kbps
Width : 712 pixels
Height : 400 pixels
Display aspect ratio : 16:9
Frame rate mode : Constant
Frame rate : 29.970 fps
Color space : YUV
Chroma subsampling : 4:2:0
Bit depth : 8 bits
Scan type : Progressive
Bits/(Pixel*Frame) : 0.152
Stream size : 2.30 GiB (89%)
Audio
ID : 2
Format : AAC
Format/Info : Advanced Audio Codec
Format profile : LC
Codec ID : 40
Duration : 4h 13mn
Bit rate mode : Variable
Bit rate : 160 Kbps
Channel(s) : 2 channels
Channel positions : Front: L R
Sampling rate : 48.0 KHz
Compression mode : Lossy
Stream size : 290 MiB (11%)
Title : Stereo
Encoded date : UTC 2018-01-29 04:58:35
Tagged date : UTC 2018-01-29 04:58:35

 

 

 

 

 

 

 

 

 

 

WWE.Royal.Rumble.2018.PPV.720p.HDTV.x264-Ebi
Release Info:
Show Name: WWE Royal Rumble 2018 PPV
Genre: Wrestling
Release Date: 2018-01-29(UK)
Air Date: 2018-01-28(US)
Source : HDTV
Container: MP4
Video: x264, 4702Kbps, 29,970fps, 1280×720, 16:9
Audio: AAC, 192Kbps, 48KHz, 2ch
Size: 8.31 GB
Runtime: 4h 13mn

 

 

 

 

 

 

 

Watch WWE Royal Rumble 2018 PPV HDTV Ebi /720p

 

 

 

 

Watch online

 

 

Waiting finish converting video

 

 

Server 1

 

 

 

 

 

 

 

 

 

 

 

 

 

 

 

Server 2

 

 

 

 

 


 

 

 

 

Uploaded By Site DX-TV.com

 

 

 

open rar file to see this password

 

 

 

 

The password is : DX-TV.com

 

 

 

 

400p+720p

 

 

 

 

 

rapidgator.net

 

 

 

http://shrt10.com/nETjgx

 

 

http://shrt10.com/xMSAiht

 

 

 

 

 

 

 

 

 

 

http://shrt10.com/AqW1

 

http://shrt10.com/uZpi2q

 

http://shrt10.com/HQyfRM

 

 

 

http://shrt10.com/2NN1vcUI

 

http://shrt10.com/esqzi

 

http://shrt10.com/lV4Oe

 

 

 

 

 

 

 

 

 

 

 

Watch WWE Royal Rumble 2018 PPV HDTV Ebi /720p