Watch WWE Ride Along S04E02 WrestleMania Way 720p WEB HEEL full show free mp4

 

 

 

 


 

 

 

dx-tv.com

 

 

 

 

 

Complete name : WWE.Ride.Along.S04E02.WrestleMania.Way.720p.WEB.h264-HEEL.mp4
Format : MPEG-4
Format profile : Base Media
Codec ID : isom (isom/iso2/avc1/mp41)
File size : 567 MiB
Duration : 17 min 36 s
Overall bit rate mode : Variable
Overall bit rate : 4 501 kb/s
Writing application : Lavf58.26.101

Video
ID : 1
Format : AVC
Format/Info : Advanced Video Codec
Format settings, Reference : 3 frames
Codec ID : avc1
Codec ID/Info : Advanced Video Coding
Duration : 17 min 36 s
Bit rate mode : Variable
Bit rate : 4 399 kb/s
Maximum bit rate : 5 500 kb/s
Width : 1 280 pixels
Height : 720 pixels
Display aspect ratio : 16:9
Frame rate mode : Constant
Frame rate : 29.970 (30000/1001) FPS
Color space : YUV
Chroma subsampling : 4:2:0
Bit depth : 8 bits
Scan type : Progressive
Bits/(Pixel*Frame) : 0.159
Stream size : 554 MiB (98%)
Codec configuration box : avcC

Audio
ID : 2
Format : AAC LC
Format/Info : Advanced Audio
Codec ID : mp4a-40-2
Duration : 17 min 36 s
Bit rate mode : Constant
Bit rate : 93.5 kb/s
Channel(s) : 2 channels
Channel layout : L R
Sampling rate : 48.0 kHz
Frame rate : 46.875 FPS (1024 SPF)
Compression mode : Lossy
Stream size : 11.8 MiB (2%)
Default : Yes
 

 

 

 


 

 

 

Watch WWE Ride Along S04E02 WrestleMania Way 720p WEB HEEL full show free mp4

 

 

 

 

Watch online

 

 

Waiting finish converting video

 

 

Server 1

 

 

 

 

 


 

 

 


 

 


 

 

 

Uploaded By Site DX-TV.com

 

 

 

open rar file to see this password

 

 

 

 

The password : DX-TV.com

 

 

 

 

Uploaded.net + rapidgator.net + DDL.to + katfile.com

 

 

 

 


 

 

 
https://shrt10.com/awSluFj
 

 

https://shrt10.com/Fn0GU

 

 
https://shrt10.com/mNTspP
 

 

 

 

Watch WWE Ride Along S04E02 WrestleMania Way 720p WEB HEEL full show free mp4