Watch WWE RAW Talk 25 Jan 2021 1080p DX-TV

Watch WWE RAW Talk 25 Jan 2021 1080p DX-TV

Watch WWE RAW Talk

 Watch WWE RAW Talk

 

Download Links with premium High Speed   

 

 

dropapk.to

http://shrt10.com/5iWwKp1T9

 

 

nitroflare.com

http://shrt10.com/J2GnI4

 

 

rapidgator.net

http://shrt10.com/tpKnp

 

 

uploaded.net

http://shrt10.com/jA1VG

 

 

 

Watch WWE RAW online

 

Server 1

 

 

 

 

Watch WWE RAW

 

 

 

 

Server-2

 

 

 

 

watch now

 

 

Uploaded By Site DX-TV.com

 

 

Complete name : WWE.RAW.Talk.25th.Jan.2021.1080p.WEBRip.h264-TJ.mp4
Format : MPEG-4
Format profile : Base Media
Codec ID : isom
File size : 1.42 GiB
Duration : 25 min 36 s
Overall bit rate mode : Variable
Overall bit rate : 7 922 kb/s
Writing application : Lavf58.25.100

Watch WWE RAW

Video
ID : 1
Format : AVC
Format/Info : Advanced Video
Duration : 25 min 36 s
Bit rate : 7 808 kb/s
Width : 1 920 pixels
Height : 1 080 pixels
Display aspect ratio : 16:9
Frame rate mode : Constant
Frame rate : 30.000 FPS
Color space : YUV
Chroma subsampling : 4:2:0
Bit depth : 8 bits
Scan type : Progressive
Bits/(Pixel*Frame) : 0.126
Stream size : 1.38 GiB (97%)

Watch WWE RAW

Audio
ID : 2
Format : AAC LC
Format/Info : Advanced Audio
Codec ID : mp4a-40-2
Duration : 25 min 36 s
Bit rate mode : Variable
Bit rate : 192 kb/s
Maximum bit rate : 200 kb/s
Channel(s) : 2 channels
Channel layout : L R
Sampling rate : 48.0 kHz
Frame rate : 46.875 FPS
Compression mode : Lossy
Stream size : 35.4 MiB (2%)
Default : Yes
Alternate group : 1

Watch WWE RAW

Audio
ID : 2
Format : AAC LC
Format/Info : Advanced Audio
Codec ID : mp4a-40-2
Duration : 25 min 36 s
Bit rate mode : Variable
Bit rate : 192 kb/s
Maximum bit rate : 200 kb/s
Channel(s) : 2 channels
Channel layout : L R
Sampling rate : 48.0 kHz
Frame rate : 46.875 FPS
Compression mode : Lossy
Stream size : 35.4 MiB (2%)
Default : Yes
Alternate group : 1

Watch WWE RAW

Audio
ID : 2
Format : AAC LC
Format/Info : Advanced Audio
Codec ID : mp4a-40-2
Duration : 25 min 36 s
Bit rate mode : Variable
Bit rate : 192 kb/s
Maximum bit rate : 200 kb/s
Channel(s) : 2 channels
Channel layout : L R
Sampling rate : 48.0 kHz
Frame rate : 46.875 FPS
Compression mode : Lossy
Stream size : 35.4 MiB (2%)
Default : Yes
Alternate group : 1

 

 

https://dx-tv.com/

You May Also Like

Leave a Reply

Your email address will not be published. Required fields are marked *

This site uses Akismet to reduce spam. Learn how your comment data is processed.