Watch WWE Raw Talk 2020 06 29 720p

Watch WWE Raw Talk 2020 06 29 720p DX-TV

 

WWE Raw

 WWE Raw

Watch WWE Raw Talk 2020 06 29 720p

 

 

 

Complete name : WWE.Raw.Talk.2020.06.29.720p.WEB.h264-HEEL.mp4
Format : MPEG-4
Format profile : Base Media
Codec ID : isom
File size : 757 MiB
Duration : 21 min 24 s
WWE Raw rate mode : Variable
Overall bit rate : 4 946 kb/s
Writing application : Lavf58.32.104

Watch WWE Raw Talk 2020 06 29 720p

Video
ID : 1
Format : AVC
Format/Info : Advanced Video Codec
wprofile : [email protected]
Format settings : WWE Raw
ssettings, CABAC : Yes
Format settings, Reference : 4 frames
Format settings, GOP : M=1, N=60
Codec ID : avc1
Codec ID/Info : WWE Raw Coding
Duration : 21 min 24 s
Bit rate mode : Variable
Bit rate : 4 809 kb/s
Width : 1 280 pixels
Height : 720 pixels
Display aspect ratio : 16:9
Frame rate mode : Variable
Frame rate : 30.000 FPS
Minimum frame rate : 29.412 FPS
Maximum frame rate : 30.303 FPS
Standard : NTSC
Color space : YUV
Chroma subsampling : 4:2:0
Bit depth : 8 bits
Scan type : Progressive
Bits/(Pixel*Frame) : 0.174
Stream size : 737 MiB (97%)
Color range : Limited
Color primaries : BT.709
Transfer WWE Raw : BT.709
Matrix coefficients : BT.709
Codec configuration box : avcC

Audio
ID : 2
Format : AAC LC
Format/Info : WWE Raw Complexity
Codec ID : mp4a-40-2
Duration : 21 min 23 s
Bit rate mode : Variable
Bit rate : 125 kb/s
Maximum bit rate : 139 kb/s
Channel(s) : 2 channels
Channel layout : L R
Sampling rate : 48.0 kHz
Frame rate : 46.875 FPS (1024 SPF)
WWE Raw mode : Lossy
Stream size : 19.2 MiB (3%)
Default : Yes
Alternate group : 1

Watch WWE Raw Talk 2020 06 29 720p

 

Text #1
ID : 1-CC1
Format : EIA-608
Muxing mode : WWE Raw Transport
Muxing mode, more info : Muxed in Video #1
Duration : 21 min 24 s
Bit rate mode : Constant
Stream size : 0.00 Byte (0%)
CaptionServiceName : CC1

Text #2
ID : 1-CC3
Format : EIA-608
Muxing mode : WWE Raw Transport
Muxing mode, more info : Muxed in Video #1
Duration : 21 min 24 s
Bit rate mode : Constant
Stream size : 0.00 Byte (0%)
CaptionServiceName : CC3

Text #3
ID : 1-1
Format : EIA-708
Muxing mode : WWE Raw Transport
Muxing mode, more info : Muxed in Video #1
Duration : 21 min 24 s
Bit rate mode : Constant
Stream size : 0.00 Byte (0%)

Text #4
ID : 1-3
Format : EIA-708
Muxing mode : WWE Raw Transport
Muxing mode, more info : Muxed in Video #1
Duration : 21 min 24 s
Bit rate mode : Constant
Stream size : 0.00 Byte (0%)

Text #5
ID : 1-4
Format : EIA-708
Muxing mode : WWE Raw Transport
Muxing mode, more info : Muxed in Video #1
Duration : 21 min 24 s
Bit rate mode : Constant
Stream size : 0.00 Byte (0%)

Text #6
ID : 1-5
Format : EIA-708
Muxing mode : WWE Raw Transport
Muxing mode, more info : Muxed in Video #1
Duration : 21 min 24 s
Bit rate mode : Constant
Stream size : 0.00 Byte (0%)

Text #7
ID : 1-6
Format : EIA-708
Muxing mode : WWE Raw Transport
Muxing mode, more info : Muxed in Video #1
Duration : 21 min 24 s
Bit rate mode : Constant
Stream size : 0.00 Byte (0%)

 

 

Watch WWE Raw Talk 2020 06 29 720p

 

 

 

Watch online

 

 

Server 1

 

 

 

 

watch now

 

 

 

 

Server 2

 

 

 

watch now

 

 

 

Server-3

 

 

 

WWE Raw

 

 

 

Uploaded By Site DX-TV.com

 

 

 

Download with premium account LinksĀ 

 

 

Keep2Share

 

 

nitroflare.com

 

 

rapidgator.net

 

 

uploadgig.com

 

 

 

dx-tv.com

 

urlfree.net

 103 total views,  3 views today

Leave a Reply

Your email address will not be published. Required fields are marked *

This site uses Akismet to reduce spam. Learn how your comment data is processed.

%d bloggers like this:
Optimized with PageSpeed Ninja