Watch WWE RAW Online 2020 12 14 1080i 23GB DX-TV

Watch WWE RAW Online 2020 12 14 Feed 1080i HDTV DX-TV 23GB

Watch WWE RAW Online

 Watch WWE RAW Online

 

Note:

Including video WWE RAW Talk with commercial 

 

Download Links with premium High Speed   

 

 

dropapk.to

http://shrt10.com/kZGEq
http://shrt10.com/ARtBm
http://shrt10.com/9XSv5ZWi

 

 

nitroflare.com

http://shrt10.com/zQhaVhffo
http://shrt10.com/DCFlCw4P
http://shrt10.com/syEQxvf

 

 

rapidgator.net

http://shrt10.com/Su9dMv7               23 GB      1 Link

 

 

 

Watch online

 

Server 1

 

 

 

 

Watch WWE Raw Online

 

 

 

 

Server-2

 

 

 

 

watch now

 

 

 

Uploaded By Site DX-TV.com

 WWE RAW Online

[su_expand more_text=”Show More Info” less_text=”Close all Info” height=”50″ text_color=”#000000″ link_color=”#e25f8b” link_style=”button” more_icon=”icon: arrow-down” less_icon=”icon: arrow-up”]
Complete name : WWE.RAW.2020.12.14.1080i.HDTV DX-TV.ts
Format : MPEG-TS
File size : 22.8 GiB
Duration : 3 h 33 min
Overall bit rate mode : Variable
Overall bit rate : 15.3 Mb/s

Video
Format : AVC
Codec ID : 27
Duration : 3 h 33 min
Bit rate : 13.9 Mb/s
Width : 1 920 pixels
Height : 1 080 pixels
aspect ratio : 16:9
Frame rate : 25.000 FPS
Color space : YUV
Chroma subsampling : 4:2:0
Bit depth : 8 bits
Scan type : Interlaced
Bits/(Pixel*Frame) : 0.269
Stream size : 20.7 GiB (91%)
Color range : Limited
Color primaries : BT.709
Transfer characteristics : BT.709
Matrix coefficients : BT.709

 WWE RAW Online

Audio #1
Format : MPEG Audio
version : Version 1
Format profile : Layer 2
Codec ID : 3
Duration : 3 h 33 min
Bit rate mode : Constant
Bit rate : 320 kb/s
Channel(s) : 2 channels
Sampling rate : 48.0 kHz
Frame rate : 41.667 FPS
Compression mode : Lossy
Delay relative to video : -611 ms
Stream size : 488 MiB (2%)
Language : English

Watch WWE RAW Online

Audio #2
ID : 4060 (0xFDC)
Menu ID : 1 (0x1)
Format : MPEG Audio
version : Version 1
Format profile : Layer 2
Codec ID : 3
Duration : 3 h 33 min
Bit rate mode : Constant
Bit rate : 320 kb/s
Channel(s) : 2 channels
Sampling rate : 48.0 kHz
Frame rate : 41.667 FPS (1152 SPF)
Compression mode : Lossy
Delay relative to video : -691 ms
Stream size : 488 MiB (2%)
Language : English

 WWE RAW Online

Menu
ID : 1060 (0x424)
Menu ID : 1 (0x1)
Duration : 3 h 33 min
List : 2060 (0x80C) (AVC) / 3060 (0xBF4) (MPEG Audio, English) / 4060 (0xFDC) (MPEG Audio, English)
Language : / English / English
Maximum bit rate : 200000000

Menu
ID : 1060 (0x424)
Menu ID : 1 (0x1)
Duration : 3 h 33 min
List : 2060 (0x80C) (AVC) / 3060 (0xBF4) (MPEG Audio, English) / 4060 (0xFDC) (MPEG Audio, English)
Language : / English / English
Maximum bit rate : 200000000

[/su_expand]

 

https://dx-tv.com/

You May Also Like

Leave a Reply

Your email address will not be published. Required fields are marked *

This site uses Akismet to reduce spam. Learn how your comment data is processed.