Watch WWE RAW Free November 02 2020 720p Full Show

WWE RAW 720p November 02 2020 Full Show Online NWCHD DX-TV

WWE RAW November 02 2020

 

 WWE RAW November 02 2020
 


 

 

Watch WWE RAW Free November 02 2020 720p Full Show

 

Who else will step up to join Team Raw at Survivor Series?

Two more spots are up for grabs on Team Raw. Who wants ‘em?

AJ Styles, Keith Lee and Sheamus all punched their tickets to Survivor Series with qualifying match wins last week.

The Phenomenal One dropped Jeff Hardy in a battle between the two rivals.

Lee overpowered Elias with a little help from Hardy’s presence.

The Celtic Warrior clinched the final spot of the night by outlasting Riddle.

Who will be the next Superstar to join them?

Don’t miss the latest in the road to Survivor Series this Monday at 8/7 C on Raw on the USA Network.

WWE RAW November 02 2020

 

Complete name : WWE.Raw.2020.11.02.720p.WCHD.mp4
Format : MPEG-4
Format profile : Base Media
Codec ID : isom
File size : 4.11 GiB
Duration : 2 h 6 min
Overall bit rate : 4 650 kb/s
Writing application : Lavf58.51

WWE RAW November 02 2020

Video
ID : 1
Format : AVC
Duration : 2 h 6 min
Bit rate : 4 500 kb/s
Width : 1 280 pixels
Height : 720 pixels
Display ratio : 16:9
rate mode : Variable
Frame rate : 29.970 FPS
Color space : YUV
Chroma subsampling : 4:2:0
Bit depth : 8 bits
Scan type : Progressive
Bits/(Pixel*Frame) : 0.163
Stream size : 3.93 GiB (96%)
Color primaries : BT.709
Transfer characteristics : BT.709
Matrix coefficients : BT.709
Codec configuration box : avcC

WWE RAW November 02 2020

Audio
ID : 2
Format : AAC LC
Format/Info : Advanced Audio
Codec ID : mp4a-40-2
Duration : 2 h 6 min
Bit rate mode : Constant
Bit rate : 192 kb/s
Channel(s) : 2 channels
Channel layout : L R
Sampling rate : 48.0 kHz
Frame rate : 46.875 FPS
Compression mode : Lossy
Stream size : 174 MiB
Title : Stereo
Language : English
Default : Yes
Alternate group : 1

 

 

 

Watch WWE RAW Free November 02 2020 720p Full Show

 

 

Watch online

 

 

Server 1

 

 

 

 

 

 

 

WWE RAW November 02 2020

Server-2

 

 

 

 

 

 

 

 

Uploaded By Site DX-TV.com

 

 

Download Links with premium High Speed   

 

 

 

 

dropapk.to

 

 

 

nitroflare.com

 

 

 

rapidgator.net

 

 

 

uploaded.net

 

 

 

uploadgig.com

 

 

 

 

 

dx-tv.com

 

urlfree.net

Leave a Reply

Your email address will not be published. Required fields are marked *

This site uses Akismet to reduce spam. Learn how your comment data is processed.