Watch WWE Raw 25 01 2021 720p HDTV NWCHD DX-TV

Watch WWE Raw 25 01 2021 720p HDTV NWCHD DX-TV

Watch WWE Raw 25 01 2021

 Watch WWE Raw 25 01 2021

 

Download Links with premium High Speed   

 

 

dropapk.to

http://shrt10.com/YjcyidLF
http://shrt10.com/GZcqulL6j

 

 

nitroflare.com

http://shrt10.com/dtJ19AO
http://shrt10.com/yupaqW

 

 

rapidgator.net

http://shrt10.com/QmSWoc3su
http://shrt10.com/hvMhce

 

 

uploaded.net

http://shrt10.com/JLf3Dgo
http://shrt10.com/eHNfdP

 

 

 

Watch WWE Raw online

 

Server 1

 

 

 

 

Watch WWE Raw

 

 

 

 

Server-2

 

 

 

 

watch now

 

 

Uploaded By Site DX-TV.com

 

 

Complete name : WWE.Monday.Night.Raw.2021.01.25.HDTV.x264-NWCHD.mp4
Format : MPEG-4
Format profile : Base Media
Codec ID : isom
File size : 1.40 GiB
Duration : 2 h 6 min
Overall bit rate : 1 589 kb/s
Writing application : Lavf58.27.103

Watch WWE Raw

Video
ID : 1
Format : AVC
Format/Info : Advanced Video
Duration : 2 h 6 min
Bit rate : 1 400 kb/s
Width : 704 pixels
Height : 400 pixels
Display aspect ratio : 16:9
Frame rate mode : Variable
Frame rate : 29.970 (29970/1000) FPS
Color space : YUV
Chroma subsampling : 4:2:0
Bit depth : 8 bits
Scan type : Progressive
Bits/(Pixel*Frame) : 0.166
Stream size : 1.23 GiB (87%)
Color primaries : BT.709
Transfer characteristics : BT.709
Matrix coefficients : BT.709
Codec configuration box : avcC

Watch WWE Raw

Audio
ID : 2
Format : AAC LC
Format/Info : Advanced Audio
Codec ID : mp4a-40-2
Duration : 2 h 6 min
Bit rate mode : Constant
Bit rate : 192 kb/s
Channel(s) : 2 channels
Channel layout : L R
Sampling rate : 48.0 kHz
Frame rate : 46.875 FPS (1024 SPF)
Compression mode : Lossy
Stream size : 174 MiB (12%)
Title : Stereo
Language : English
Default : Yes
Alternate group : 1

Complete name : WWE.Monday.Night.Raw.2021.01.25.720p.HDTV.x264-NWCHD.mp4
Format : MPEG-4
Format profile : Base Media
Codec ID : isom
File size : 4.12 GiB
Duration : 2 h 6 min
Overall bit rate : 4 664 kb/s
Writing application : Lavf58.51.101

 WWE Raw

Video
ID : 1
Format : AVC
Format/Info : Advanced Video
Duration : 2 h 6 min
Bit rate : 4 500 kb/s
Width : 1 280 pixels
Height : 720 pixels
Display aspect ratio : 16:9
Frame rate mode : Variable
Frame rate : 29.970 FPS
Color space : YUV
Chroma subsampling : 4:2:0
Bit depth : 8 bits
Scan type : Progressive
Bits/(Pixel*Frame) : 0.163
Stream size : 3.94 GiB (96%)
Color primaries : BT.709
Transfer characteristics : BT.709
Matrix coefficients : BT.709
Codec configuration box : avcC

Watch WWE Raw

Audio
ID : 2
Format : AAC LC
Format/Info : Advanced Audio
Codec ID : mp4a-40-2
Duration : 2 h 6 min
Bit rate mode : Constant
Bit rate : 192 kb/s
Channel(s) : 2 channels
Channel layout : L R
Sampling rate : 48.0 kHz
Frame rate : 46.875 FPS (1024 SPF)
Compression mode : Lossy
Stream size : 174 MiB (4%)
Title : Stereo
Language : English
Default : Yes
Alternate group : 1

 

 

https://dx-tv.com/

You May Also Like

Leave a Reply

Your email address will not be published. Required fields are marked *

This site uses Akismet to reduce spam. Learn how your comment data is processed.