Watch WWE RAW 2021 Jan 04 720p HDTV DX-TV

Watch WWE RAW 2021 Jan 04 Legends Night 720p HDTV DX-TV

Watch WWE RAW 2021

 WWE RAW 2021 01 04

 

Download Links with premium High Speed   

 

 

dropapk.to

http://shrt10.com/IcrA63704

 

 

nitroflare.com

http://shrt10.com/npQJaEgv

 

 

rapidgator.net

http://shrt10.com/14JEcCBBB

 

 

uploaded.net

http://shrt10.com/sXF22aVz

 

 

uploadgig.com

http://shrt10.com/SzkCT

 

Watch Watch WWE RAW  

 

Server 1

 

 

 

 

Watch WWE RAW 2021

 

 

 

 

Server-2

 

 

 

 

watch now

 

 

Uploaded By Site DX-TV.com

 

Complete name : WWE.RAW.2021.01.04.Legends.Night.720p.HDTV.x264 DX-TV.mp4
Format : MPEG-4
Format profile : Base Media / Version 2
Codec ID : mp42
File size : 3.79 GiB
Duration : 2 h 44 min
Overall bit rate : 3 302 kb/s

Watch WWE RAW 2021

Video
ID : 1
Format : AVC
Format/Info : Advanced Video
Duration : 2 h 44 min
Bit rate : 3 133 kb/s
Width : 1 280 pixels
Height : 718 pixels
Display aspect ratio : 16:9
Frame rate mode : Constant
Frame rate : 30.000 FPS
Color space : YUV
Chroma subsampling : 4:2:0
Bit depth : 8 bits
Scan type : Progressive
Bits/(Pixel*Frame) : 0.114
Stream size : 3.60 GiB (95%)
Color range : Limited
Color primaries : BT.709
Transfer characteristics : BT.709
Matrix coefficients : BT.709
Codec configuration box : avc

Watch WWE RAW 2021

Audio
ID : 2
Format : AAC LC
Format/Info : Advanced Audio Codec
Codec ID : mp4a-40-2
Duration : 2 h 44 min
Bit rate mode : Constant
Bit rate : 161 kb/s
Channel(s) : 2 channels
Channel layout : L R
Sampling rate : 48.0 kHz
Frame rate : 46.875 FPS (1024 SPF)
Compression mode : Lossy
Stream size : 189 MiB (5%)
Title : Stereo
Language : English
Default : Yes
Alternate group : 1

Watch WWE RAW 2021

Audio
ID : 2
Format : AAC LC
Format/Info : Advanced Audio Codec
Codec ID : mp4a-40-2
Duration : 2 h 44 min
Bit rate mode : Constant
Bit rate : 161 kb/s
Channel(s) : 2 channels
Channel layout : L R
Sampling rate : 48.0 kHz
Frame rate : 46.875 FPS (1024 SPF)
Compression mode : Lossy
Stream size : 189 MiB (5%)
Title : Stereo
Language : English
Default : Yes
Alternate group : 1

 WWE RAW 2021

Audio
ID : 2
Format : AAC LC
Format/Info : Advanced Audio Codec
Codec ID : mp4a-40-2
Duration : 2 h 44 min
Bit rate mode : Constant
Bit rate : 161 kb/s
Channel(s) : 2 channels
Channel layout : L R
Sampling rate : 48.0 kHz
Frame rate : 46.875 FPS (1024 SPF)
Compression mode : Lossy
Stream size : 189 MiB (5%)
Title : Stereo
Language : English
Default : Yes
Alternate group : 1

 

 

https://dx-tv.com/

Leave a Reply

Your email address will not be published. Required fields are marked *

This site uses Akismet to reduce spam. Learn how your comment data is processed.