Watch WWE RAW 2021 01 04 Legends Night HDTV DX-TV

Watch WWE RAW 2021 01 04 Legends Night 540p HDTV DX-TV

Watch WWE RAW 2021 01 04

 Watch WWE RAW 2021 01 04

 

Download Links with premium High Speed   

 

 

 

nitroflare.com

http://shrt10.com/gnQcgliye

 

 

rapidgator.net

http://shrt10.com/VSeLGWboi

 

 

uploaded.net

http://shrt10.com/l7N9zCt

 

 

uploadgig.com

http://shrt10.com/Imvwl

 

 

Note :

This video full show included raw talk

 

 

Watch online

 

Server 1

 

 

 

 

Watch WWE RAW 2021 01 04

 

 

 

 

Server-2

 

 

 

 

Watch WWE RAW 2021 01 04

 

 

Uploaded By Site DX-TV.com

 

 

Complete name : WWE.RAW.2021.01.04.Legends.Night.540p.HDTV.x264 .mp4
Format : MPEG-4
Format profile : Base Media
Codec ID : isom
File size : 3.80 GiB
Duration : 2 h 44 min
Overall bit rate : 3 309 kb/s
Writing application : Lavf56.15.102

Watch WWE RAW 2021 01 04

Video
ID : 1
Format : AVC
Format/Info : Advanced Video
Duration : 2 h 44 min
Bit rate : 3 000 kb/s
Width : 960 pixels
Height : 540 pixels
Display aspect ratio : 16:9
Frame rate mode : Constant
Frame rate : 50.000 FPS
Color space : YUV
Chroma subsampling : 4:2:0
Bit depth : 8 bits
Scan type : Progressive
Bits/(Pixel*Frame) : 0.116
Stream size : 3.43 GiB (90%)
Writing library : x264 core 142

Watch WWE RAW 2021  

Audio
ID : 2
Format : AC-3
Format/Info : Audio Coding 3
Commercial name : Dolby Digital
Codec ID : ac-3
Duration : 2 h 44 min
Bit rate mode : Constant
Bit rate : 320 kb/s
Channel(s) : 6 channels
Channel layout : L R C LFE Ls Rs
Sampling rate : 48.0 kHz
Frame rate : 31.250 FPS (1536 SPF)
Compression mode : Lossy
Stream size : 376 MiB (10%)
Language : English
Service kind : Complete Main
Default : Yes
Alternate group : 1

Watch WWE RAW 2021  

Audio
ID : 2
Format : AC-3
Format/Info : Audio Coding 3
Commercial name : Dolby Digital
Codec ID : ac-3
Duration : 2 h 44 min
Bit rate mode : Constant
Bit rate : 320 kb/s
Channel(s) : 6 channels
Channel layout : L R C LFE Ls Rs
Sampling rate : 48.0 kHz
Frame rate : 31.250 FPS (1536 SPF)
Compression mode : Lossy
Stream size : 376 MiB (10%)
Language : English
Service kind : Complete Main
Default : Yes
Alternate group : 1

 WWE RAW 2021 01 04

Audio
ID : 2
Format : AC-3
Format/Info : Audio Coding 3
Commercial name : Dolby Digital
Codec ID : ac-3
Duration : 2 h 44 min
Bit rate mode : Constant
Bit rate : 320 kb/s
Channel(s) : 6 channels
Channel layout : L R C LFE Ls Rs
Sampling rate : 48.0 kHz
Frame rate : 31.250 FPS (1536 SPF)
Compression mode : Lossy
Stream size : 376 MiB (10%)
Language : English
Service kind : Complete Main
Default : Yes
Alternate group : 1

https://dx-tv.com/

Leave a Reply

Your email address will not be published. Required fields are marked *

This site uses Akismet to reduce spam. Learn how your comment data is processed.