Watch WWE Raw 2020 09 28 Free Full Show

WWE Raw 2020 09 28 HDTV Star DX-TV

 

Watch WWE Raw

 

 Watch WWE Raw

 

Watch WWE Raw 2020 09 28 Free Full Show

 

Kevin Owens def. Aleister Black by disqualification

The heated rivalry between Kevin Owens and Aleister Black was renewed on Raw, as the two brutalized each other with bruising strikes. However, The Dutch Destroyer’s rage cost him. As he was unleashing a flurry of strikes on KO, Black inadvertently struck the official, who had no choice but to disqualify Black and award Owens the victory. Then, as Black argued with the referee, KO turned him around and dropped Black with a Stunner.

Watch WWE Raw

24/7 Champion R-Truth def. Drew Gulak and Akira Tozawa

After their quick trading of the 24/7 Championship earlier in the night, R-Truth, Akira Tozawa and Drew Gulak engaged in a more formal battle for the title inside the WWE ThunderDome. Despite a spirited effort from the challengers, Truth won with a thunderous AA to retain his title.

 

Watch WWE Raw

Complete name : WWE.Raw.2020.09.28.HDTV.x264-Star.mp4
Format : MPEG-4
Format profile : Base Media
Codec ID : mp42
File size : 1.34 GiB
Duration : 2 h 11 min
Overall bit rate : 1 456 kb/s

 WWE Raw

Video
ID : 1
Format : AVC
Codec ID : avc1
Codec ID/Info : Advanced
Duration : 2 h 11 min
Bit rate : 1 300 kb/s
Width : 720 pixels
Height : 480 pixels
Display aspect ratio : 16:9
Original aspect rat : 16:9
Frame rate mode : Constant
rate : 29.970 (30000/1001) FPS
Standard : NTSC
Color space : YUV
Chroma subsampling : 4:2:0
Bit depth : 8 bits
Scan type : Progressive
Bits/(Pixel*Frame) : 0.126
Stream size : 1.19 GiB (88%)
Color range : Limited
Color primaries : BT.601 NTSC
Transfer characteristics : BT.709
Matrix coefficients : BT.601
Codec configuration box : avcC

Watch WWE Raw

Audio
ID : 2
Format : AAC LC
Format/Info : Advanced Audio
Codec ID : mp4a-40-2
Duration : 2 h 11 min
Bit rate mode : Constant
Bit rate : 159 kb/s
Channel(s) : 2 channels
Channel layout : L R
Sampling rate : 48.0 kHz
Frame rate : 46.875 FPS (1024 SPF)
Compression mode : Lossy
Stream size : 150 MiB (11%)
Title : Stereo
Default : Yes
Alternate group : 1

 

 

 

Watch WWE Raw 2020 09 28 Free Full Show

 

 

 

 

Watch online

 

 

 

 

 

Server 1

 

 

 

 

watch now

 

 

 

 

Server-2

 

 

 

watch now

 

 

 

 

Server-3

 

 

 

Watch WWE Raw

 

 

 

 

Uploaded By Site DX-TV.com

 

 

 

 

Download Free Links with normal and high Speed [ more 15 hosts ]  

 

 

 

http://shrt10.com/mEsn6
http://shrt10.com/3bvFFgV
http://shrt10.com/oyTlO47d
http://shrt10.com/6Qqewp7az
http://shrt10.com/NfeQZ
http://shrt10.com/rZg33g
http://shrt10.com/HweFyc3nG
http://shrt10.com/lxBRCtn
http://shrt10.com/lpL9AbWz
http://shrt10.com/NKWyYWdR0
http://shrt10.com/CM6EZhs
http://shrt10.com/GnDehu
http://shrt10.com/ReUnEYA7

 

 

 

 

Download Links with premium High Speed   

 

 

 

 

 

Keep2Share

 

 

 

nitroflare.com

 

 

 

rapidgator.net

 

 

 

uploaded.net

 

 

 

uploadgig.com

 

 

 

 

 

dx-tv.com

 

urlfree.net

Leave a Reply

Your email address will not be published. Required fields are marked *

This site uses Akismet to reduce spam. Learn how your comment data is processed.