Watch WWE RAW 2018 10 01 HDTV Star

Watch WWE RAW 2018 10 01 HDTV Star

 

 

 

 


 

 

 

dx-tv.com

 

 

 

 

Complete name : WWE.RAW.2018.10.01.HDTV.x264-Star.mp4
Format : MPEG-4
File size : 1.43 GiB
Duration : 2 h 20 min
Overall bit rate mode : Variable
Overall bit rate : 1 465 kb/s
Encoded date : UTC 2018-10-02 03:33:01
Tagged date : UTC 2018-10-02 03:33:01

Video
ID : 1
Format : AVC
Format/Info : Advanced Video Codec
Codec ID/Info : Advanced Video Coding
Duration : 2 h 20 min
Bit rate : 1 300 kb/s
Width : 712 pixels
Height : 400 pixels
Display aspect ratio : 16:9
Frame rate mode : Constant
Frame rate : 29.970
Color space : YUV
Chroma subsampling : 4:2:0
Bit depth : 8 bits
Scan type : Progressive
Bits/(Pixel*Frame) : 0.152
Stream size : 1.27 GiB (89%)
Encoded date : UTC 2018-10-02 03:33:01
Tagged date : UTC 2018-10-02 03:33:01
Color range : Limited
Color primaries : BT.601 NTSC
Transfer characteristics : BT.709
Matrix coefficients : BT.601

Audio
ID : 2
Format : AAC
Format/Info : Advanced Audio Codec
Format profile : LC
Codec ID : mp4a-40-2
Duration : 2 h 20 min
Bit rate mode : Variable
Bit rate : 160 kb/s
Channel(s) : 2 channels
Channel positions : Front: L R
Sampling rate : 48.0 kHz
Frame rate : 46.875 FPS (1024 SPF)
Compression mode : Lossy
Stream size : 160 MiB (11%)
Title : Stereo / Stereo
Default : Yes
Alternate group : 1
Encoded date : UTC 2018-10-02 03:33:01
Tagged date : UTC 2018-10-02 03:33:01

 

 

 

 

 

 

 

Watch WWE RAW 2018 10 01 HDTV Star

 

 

 

 

Watch online

 

 

Waiting finish converting video

 

 

Server 1

 

 

 

 

 

 

 

 

 

 

 

 

 

 

 

 

 

Server 2

 

 

 

 

 

 


 

 

 

 

 

 

 

Uploaded By Site DX-TV.com

 

 

 

open rar file to see this password

 

 

 

 

The password : DX-TV.com

 

 

 

 

Uploaded.net + rapidgator.net

 

 

 

 

 

 

 
http://shrt10.com/R9ybM
 

 

 

 

 

 

 
http://shrt10.com/SatK

 

 

 

 

 

 

 

Watch WWE RAW 2018 10 01 HDTV Star