Watch WWE RAW 2018 08 20 HDTV Star mp4

Watch WWE RAW 2018 08 20 HDTV Star mp4

 

 

 

 


 

 

 

dx-tv.com

 

 

 

 

Complete name : WWE.RAW.2018.08.20.HDTV.x264-Star.mp4
Format : MPEG-4
File size : 1.39 GiB
Duration : 2 h 15 min
Overall bit rate mode : Variable
Overall bit rate : 1 471 kb/s
Encoded date : UTC 2018-08-21 03:25:55
Tagged date : UTC 2018-08-21 03:25:55

Video
ID : 1
Format : AVC
Format/Info : Advanced Video Codec
Codec ID : avc1
Codec ID/Info : Advanced Video Coding
Duration : 2 h 15 min
Bit rate : 1 300 kb/s
Width : 712 pixels
Height : 400 pixels
Display aspect ratio : 16:9
Frame rate mode : Constant
Color space : YUV
Chroma subsampling : 4:2:0
Bit depth : 8 bits
Scan type : Progressive
Bits/(Pixel*Frame) : 0.152
Stream size : 1.23 GiB (89%)
Encoded date : UTC 2018-08-21 03:25:55
Tagged date : UTC 2018-08-21 03:25:55
Color range : Limited
Color primaries : BT.601 NTSC
Transfer characteristics : BT.709
Matrix coefficients : BT.601

Audio
ID : 2
Format : AAC
Format/Info : Advanced Audio Codec
Format profile : LC
Codec ID : mp4a-40-2
Duration : 2 h 15 min
Bit rate mode : Variable
Bit rate : 160 kb/s
Channel(s) : 2 channels
Channel positions : Front: L R
Sampling rate : 48.0 kHz
Frame rate : 46.875 FPS (1024 SPF)
Compression mode : Lossy
Stream size : 155 MiB (11%)
Title : Stereo / Stereo
Default : Yes
Alternate group : 1
Encoded date : UTC 2018-08-21 03:25:55
Tagged date : UTC 2018-08-21 03:25:55

 

 

 

 

Watch WWE RAW 2018 08 20 HDTV Star mp4

 

 

 

 

Watch online

 

 

Waiting finish converting video

 

 

Server 1

 

 

 

 

 

 

 

 

 

 

 

 

 

 

 

 

 

Server 2

 

 

 

 

 

 

 


 

 

 

 

 

Uploaded By Site DX-TV.com

 

 

 

open rar file to see this password

 

 

 

 

The password : DX-TV.com

 

 

 

 

 

 

Uploaded.net + rapidgator.net

 

 

 

 

 

http://shrt10.com/LPVxep

 

 

 

 

http://shrt10.com/AaeL

 

 

 

 

 

 

 

Watch WWE RAW 2018 08 20 HDTV Star mp4