Watch WWE Online Free Not Sam Wrestling E09 Music DX-TV

Watch WWE Online Free Not Sam Wrestling E09 Music 1080p DX-TV

Watch WWE Online Free

 Watch WWE Online Free

 

Download Links with premium High Speed   

 

 

dropapk.to

 

http://shrt10.com/sPVhz8u

 

nitroflare.com

http://shrt10.com/VZwmmG

 

 

rapidgator.net

 

http://shrt10.com/M84gHX

 

uploaded.net

 

http://shrt10.com/La5Sxhu4i

 

uploadgig.com

http://shrt10.com/GmKmCjetO

 

 

 WWE Online Free

Watch online

 

Server 1

 

 

 

 

Watch WWE Online Free

 

 

 

 

Server-2

 

 

 

 

watch now

 

 

Uploaded By Site DX-TV.com

 

 

 

[su_expand more_text=”Show More Info” less_text=”Close all Info” height=”50″ text_color=”#000000″ link_color=”#e25f8b” link_style=”button” more_icon=”icon: arrow-down” less_icon=”icon: arrow-up”]

Complete name : WWE.Not.Sam.Wrestling.E09.Music.720p.WEB.h264-HEEL.mp4
Format : MPEG-4
Format profile : Base Media
File size : 727 MiB
Duration : 59 min 24 s
Overall bit rate mode : Variable
Overall bit rate : 1 711 kb/s
Writing application : Lavf58.32.104

 WWE Online Free

Video
ID : 1
Format : AVC
Duration : 59 min 24 s
Bit rate : 1 512 kb/s
Width : 1 280 pixels
Height : 720 pixels
Display aspect ratio : 16:9
Frame rate mode : Constant
Frame rate : 30.000 FPS
Color space : YUV
Chroma subsampling : 4:2:0
Bit depth : 8 bits
Scan type : Progressive
Bits/(Pixel*Frame) : 0.055
Stream size : 640 MiB (88%)

Watch WWE Online Free

Audio
ID : 2
Format : AAC LC
Format/Info : Advanced Audio
Codec ID : mp4a-40-2
Duration : 59 min 24 s
Bit rate mode : Variable
Bit rate : 197 kb/s
Maximum bit rate : 226 kb/s
Channel(s) : 2 channels
Channel layout : L R
Sampling rate : 48.0 kHz
Frame rate : 46.875 FPS (1024 SPF)
Compression mode : Lossy
Stream size : 83.6 MiB (11%)
Default : Yes
Alternate group : 1

Complete name : WWE.Not.Sam.Wrestling.E09.Music.1080p.WEB.h264-HEEL.mp4
Format : MPEG-4
Format profile : Base Media
File size : 3.31 GiB
Duration : 59 min 24 s
Overall bit rate mode : Variable
Overall bit rate : 7 979 kb/s
Writing application : Lavf58.32.104

Watch WWE Online Free

Video
ID : 1
Format : AVC
Duration : 59 min 24 s
Bit rate : 7 808 kb/s
Width : 1 920 pixels
Height : 1 080 pixels
Display aspect ratio : 16:9
Frame rate mode : Constant
Frame rate : 30.000 FPS
Color space : YUV
Chroma subsampling : 4:2:0
Bit depth : 8 bits
Scan type : Progressive
Bits/(Pixel*Frame) : 0.126
Stream size : 3.23 GiB (97%)

Audio
ID : 2
Format : AAC LC
Format/Info : Advanced Audio
Codec ID : mp4a-40-2
Duration : 59 min 24 s
Bit rate mode : Variable
Bit rate : 197 kb/s
Maximum bit rate : 226 kb/s
Channel(s) : 2 channels
Channel layout : L R
Sampling rate : 48.0 kHz
Frame rate : 46.875 FPS
Compression mode : Lossy
Stream size : 83.6 MiB
Default : Yes
Alternate group : 1

 WWE Online Free

[/su_expand]

 

https://dx-tv.com/

Leave a Reply

Your email address will not be published. Required fields are marked *

This site uses Akismet to reduce spam. Learn how your comment data is processed.