Watch WWE Online Free Main Event 2020 12 17 DX-TV

Watch WWE

Watch WWE Online Free Main Event 2020 12 17 1080p Star DX-TV

Watch WWE Online Free

 Watch WWE Online Free

 

Download Links with premium High Speed   

 

 

dropapk.to

http://shrt10.com/axGosFRaN

 

 

nitroflare.com

http://shrt10.com/zrKaxnll

 

 

rapidgator.net

http://shrt10.com/0xh01

 

 

uploaded.net

http://shrt10.com/F1azBTD6X

 

 

uploadgig.com

http://shrt10.com/YA6wFaQ

 

Watch online

 

Server 1

 

 

 

 

Watch WWE Online Free

 

 

 

 

Server-2

 

 

 

 

watch now

 

 

Uploaded By Site DX-TV.com

 

 

 

[su_expand more_text=”Show More Info” less_text=”Close all Info” height=”50″ text_color=”#000000″ link_color=”#e25f8b” link_style=”button” more_icon=”icon: arrow-down” less_icon=”icon: arrow-up”]

Complete name : WWE.Main.Event.2020.12.17.1080p.Hulu.x264-Star.mkv
Format : Matroska
Format version : Version 4
File size : 2.83 GiB
Duration : 49 min 37 s
Overall bit rate : 8 170 kb/s

Watch WWE Online Free

Video
ID : 1
Format : AVC
Duration : 49 min 37 s
Bit rate : 8 000 kb/s
Width : 1 920 pixels
Height : 1 080 pixels
Display aspect ratio : 16:9
Frame rate mode : Constant
Frame rate : 29.970 FPS
Color space : YUV
Chroma subsampling : 4:2:0
Bit depth : 8 bits
Scan type : Progressive
Bits/(Pixel*Frame) : 0.129
Stream size : 2.73 GiB
Forced : No
Color range : Limited
Color primaries : BT.709
Transfer characteristics : BT.709
Matrix coefficients : BT.709

Audio
ID : 2
Format : AC-3
Format/Info : Audio Coding 3
Commercial name : Dolby Digital
Codec ID : A_AC3
Duration : 49 min 37 s
Bit rate mode : Constant
Bit rate : 128 kb/s
Channel(s) : 2 channels
Channel layout : L R
Sampling rate : 48.0 kHz
Frame rate : 31.250 FPS
Compression mode : Lossy
Delay relative to video : -5 ms
Stream size : 45.4 MiB
Title : Stereo
Service kind : Complete Main
Default : Yes
Forced : No

Watch WWE Online Free

Complete name : WWE.Main.Event.2020.12.17.Hulu.x264-Star.mp4
Format : MPEG-4
Format profile : Base Media
Codec ID : mp42
File size : 507 MiB
Duration : 49 min 37 s
Overall bit rate : 1 428 kb/s

Video
ID : 1
Format : AVC
Duration : 49 min 37 s
Bit rate : 1 300 kb/s
Width : 720 pixels
Height : 480 pixels
Display aspect ratio : 16:9
Frame rate mode : Constant
Frame rate : 29.970 FPS
Standard : NTSC
Color space : YUV
Chroma subsampling : 4:2:0
Bit depth : 8 bits
Scan type : Progressive
Bits/(Pixel*Frame) : 0.126
Stream size : 464 MiB (92%)
Color range : Limited
Color primaries : BT.709
Transfer characteristics : BT.709
Matrix coefficients : BT.709
Codec configuration box : avc

 WWE Online Free

Audio
ID : 2
Format : AAC LC
Codec ID : mp4a-40-2
Duration : 49 min 37 s
Bit rate mode : Constant
Bit rate : 112 kb/s
Channel(s) : 2 channels
Channel layout : L R
Sampling rate : 48.0 kHz
Frame rate : 46.875 FPS (1024 SPF)
Compression mode : Lossy
Stream size : 39.6 MiB (8%)
Title : Stereo
Default : Yes

 

[/su_expand]

 

https://dx-tv.com/

You May Also Like

Leave a Reply

Your email address will not be published. Required fields are marked *

This site uses Akismet to reduce spam. Learn how your comment data is processed.