Watch WWE NXT UK Online 2021 01 07 1080p DX-TV

Watch WWE NXT UK Online 2021 01 07 1080p DX-TV

Watch WWE NXT UK Online

 Watch WWE NXT UK Online

 

Download Links with premium High Speed   

 

 

 

nitroflare.com

http://shrt10.com/2pLYKrv
http://shrt10.com/5KMmbk9AP

 

 

rapidgator.net

http://shrt10.com/Xz19O4Q
http://shrt10.com/AgP4zQJ

 

 

uploaded.net

http://shrt10.com/RNxQkXc
http://shrt10.com/91PfgiV

 

 

uploadgig.com

http://shrt10.com/7BYEIvB
http://shrt10.com/BdELmX0PZ

 

Watch WWE NXT UK Online

 

Server 1

 

 

 

 

Watch WWE NXT UK Online

 

 

 

 

Server-2

 

 

 

 

watch now

 

 

Uploaded By Site DX-TV.com

 

 

Complete name : WWE.NXT.UK.2021.01.07.720p.WEB.h264 DX-TV.mp4
Format : MPEG-4
Format profile : Base Media
Codec ID : isom
File size : 1.84 GiB
Duration : 54 min 0 s
Overall bit rate mode : Variable
Overall bit rate : 4 888 kb/s
Writing application : Lavf58.25.100

Watch WWE NXT UK Online

Video
ID : 1
Format : AVC
Format/Info : Advanced Video
Duration : 54 min 0 s
Bit rate : 4 731 kb/s
Nominal bit rate : 3 372 kb/s
Width : 1 280 pixels
Original width : 1 920 pixels
Height : 720 pixels
Original height : 1 080 pixels
Display aspect ratio : 16:9
Frame rate mode : Constant
Frame rate : 30.000 FPS
Color space : YUV
Chroma subsampling : 4:2:0
Bit depth : 8 bits
Scan type : Progressive
Bits/(Pixel*Frame) : 0.171
Stream size : 1.78 GiB (97%)

Audio
ID : 2
Format : AAC LC
Format/Info : Advanced Audio
Codec ID : mp4a-40-2
Duration : 53 min 59 s
Bit rate mode : Variable
Bit rate : 149 kb/s
Maximum bit rate : 419 kb/s
Channel(s) : 2 channels
Channel layout : L R
Sampling rate : 48.0 kHz
Frame rate : 46.875 FPS (1024 SPF)
Compression mode : Lossy
Stream size : 57.6 MiB (3%)
Default : Yes
Alternate group : 1

WWE NXT UK Online

Complete name : WWE.NXT.UK.2021.01.07.1080p.WEB.h264 DX-TV.mp4
Format : MPEG-4
Format profile : Base Media
Codec ID : isom (isom/iso2/avc1/mp41)
File size : 2.99 GiB
Duration : 54 min 0 s
Overall bit rate mode : Variable
Overall bit rate : 7 931 kb/s
Writing application : Lavf58.25.100

Video
ID : 1
Format : AVC
Format/Info : Advanced Video
Duration : 54 min 0 s
Bit rate : 7 808 kb/s
Width : 1 920 pixels
Height : 1 080 pixels
Display aspect ratio : 16:9
Frame rate mode : Constant
Frame rate : 30.000 FPS
Color space : YUV
Chroma subsampling : 4:2:0
Bit depth : 8 bits
Scan type : Progressive
Bits/(Pixel*Frame) : 0.126
Stream size : 2.92 GiB (97%)

WWE NXT UK Online

Audio
ID : 2
Format : AAC LC
Format/Info : Advanced Audio
Codec ID : mp4a-40-2
Duration : 53 min 59 s
Bit rate mode : Variable
Bit rate : 192 kb/s
Maximum bit rate : 423 kb/s
Channel(s) : 2 channels
Channel layout : L R
Sampling rate : 48.0 kHz
Frame rate : 46.875 FPS (1024 SPF)
Compression mode : Lossy
Stream size : 74.4 MiB (2%)
Default : Yes
Alternate group : 1

 

 

https://dx-tv.com/

Leave a Reply

Your email address will not be published. Required fields are marked *

This site uses Akismet to reduce spam. Learn how your comment data is processed.