Watch WWE NXT UK 2020 02 06 1080p

Watch WWE NXT UK 2020 02 06 1080p DX-TV

 

 

 

 wwe nxt

 

 

 

 

Watch WWE NXT UK 2020 02 06 1080p

 

 

WWE

 

Complete name : WWE.NXT.UK.2020.02.06.1080p.WEB.h264-HEEL.mp4
Format : MPEG-4
Format profile : Base Media
Codec ID : isom
File size : 3.18 GiB
Duration : 57 min 13 s
Overall bit rate mode : Variable
Overall bit rate : 7 962 kb/s
Writing application : Lavf58.32.104

Video
ID : 1
Format : AVC
Duration : 57 min 13 s
Bit rate : 7 808 kb/s
Width : 1 920 pixels
Height : 1 080 pixels
Display aspect ratio : 16:9
Frame rate mode : Constant
Frame rate : 30.000 FPS
Color space : YUV
Chroma subsampling : 4:2:0
Bit depth : 8 bits
Scan type : Progressive
Bits/(Pixel*Frame) : 0.126
Stream size : 3.10 GiB (97%)

Audio
ID : 2
Format : AAC LC
Format/Info : Advanced Audio Codec Low Complexity
Codec ID : mp4a-40-2
Duration : 57 min 13 s
Bit rate mode : Variable
Bit rate : 192 kb/s
Maximum bit rate : 423 kb/s
Channel(s) : 2 channels
Channel layout : L R
Sampling rate : 48.0 kHz
Frame rate : 46.875 FPS (1024 SPF)
Compression mode : Lossy
Stream size : 78.7 MiB (2%)
Default : Yes
Alternate group : 1

 

 

 

Watch online

 

 

Server 1

 

 

 

 

 

 

 

 

 

 

 

Server 2

 

 

 

 

 

 

 

 

 

 

Server–3

 

 

 

 

 

 

 

 

 

Watch WWE NXT UK 2020 02 06 1080p

 

 

 

Uploaded By Site DX-TV.com

 

 

 

 

 

1fichier.com 

https://shrt10.com/jNHFGi5OR
https://shrt10.com/62q5BFK

 

DDL.to

https://shrt10.com/iZLJVo
https://shrt10.com/9nGHF3NpF

 

dl.free.fr

https://shrt10.com/33oePsY
https://shrt10.com/6Fwdl

 

earn4files.com

https://shrt10.com/mOQjjDIcc
https://shrt10.com/QN3nB

 

rockfile.co

https://shrt10.com/jG1k5zm4
https://shrt10.com/kDiX58LSP

 

 

Download with premium account Links 

 

 

nitroflare.com

 

 

rapidgator.net

 

 

Keep2Share

 

 

https://dx-tv.com/watch-online-wwe-nxt-2019-09-11/

dx-tv.com