Watch WWE NXT UK 2020 01 30 1080p

Watch WWE NXT UK 2020 01 30 1080p DX-TV

 

 

WWE NXT UK

 

 

 

 

dx-tv.com

 

 

 

 

Watch WWE NXT UK 2020 01 30 1080p

 

 

 

 

Complete name : WWE.NXT.UK.2020.01.30.1080p.WEB.h264-HEEL.mp4
Format : MPEG-4
Format profile : Base Media
Codec ID : isom (isom/iso2/avc1/mp41)
File size : 2.33 GiB
Duration : 57 min 6 s
Overall bit rate : 5 832 kb/s
Writing application : Lavf58.32.104

Video
ID : 1
Format : AVC
Duration : 57 min 6 s
Bit rate : 5 697 kb/s
Width : 1 920 pixels
Height : 1 080 pixels
Display aspect ratio : 16:9
Frame rate mode : Variable
Frame rate : 30.000 FPS
Minimum frame rate : 29.412 FPS
Maximum frame rate : 30.303 FPS
Color space : YUV
Chroma subsampling : 4:2:0
Bit depth : 8 bits
Scan type : Progressive
Bits/(Pixel*Frame) : 0.092
Stream size : 2.27 GiB (98%)
Codec configuration box : avcC

Audio
ID : 2
Format : AAC LC
Format/Info : Advanced Audio Codec Low Complexity
Codec ID : mp4a-40-2
Duration : 57 min 5 s
Bit rate mode : Constant
Bit rate : 125 kb/s
Channel(s) : 2 channels
Channel layout : L R
Sampling rate : 48.0 kHz
Frame rate : 46.875 FPS (1024 SPF)
Compression mode : Lossy
Stream size : 51.2 MiB (2%)
Default : Yes
Alternate group : 1

Text #1
ID : 1-CC1
Format : EIA-608
Muxing mode : SCTE 128 / DTVCC Transport
Muxing mode, more info : Muxed in Video #1
Duration : 57 min 6 s
Bit rate mode : Constant
Stream size : 0.00 Byte (0%)
CaptionServiceName : CC1

Text #2
ID : 1-CC3
Format : EIA-608
Muxing mode : SCTE 128 / DTVCC Transport
Muxing mode, more info : Muxed in Video #1
Duration : 57 min 6 s
Bit rate mode : Constant
Stream size : 0.00 Byte (0%)
CaptionServiceName : CC3

Text #3
ID : 1-1
Format : EIA-708
Muxing mode : SCTE 128 / DTVCC Transport
Muxing mode, more info : Muxed in Video #1
Duration : 57 min 6 s
Bit rate mode : Constant
Stream size : 0.00 Byte (0%)

 

 

 

Watch online

 

Server 1

 

 

 

 

 

 

 

 

 

 

 

Server 2

 

 

 

 

 

 

 

 

 

 

Server–3

 

 

 

 

 

 

Watch WWE NXT UK 2020 01 30 1080p

 

 

 

Uploaded By Site DX-TV.com

 

 

 

 

 

1fichier.com 

https://shrt10.com/AF72SqZrI
https://shrt10.com/GLvxl

 

DDL.to

https://shrt10.com/XDJ8oENRm
https://shrt10.com/DRpuB

 

dl.free.fr

https://shrt10.com/fjjYo4A
https://shrt10.com/tjvRs

 

earn4files.com

https://shrt10.com/F1XxG6
https://shrt10.com/v50CK

 

filerio.in

 

https://shrt10.com/Zz1QgZ
https://shrt10.com/CDh5nG

rockfile.co

https://shrt10.com/2A0hg
https://shrt10.com/Qur1k

 

 

Download with premium account Links 

 

 

nitroflare.com

 

 

rapidgator.net

 

 

uploaded.net