Watch WWE NXT UK 2018 10 17 720p WEB 4FuN

Watch WWE NXT UK 2018 10 17 720p WEB 4FuN

 

 

 

 


 

 

 

dx-tv.com

 

 

 

 

 
Complete name : WWE.NXT.UK.2018.10.17.720p.WEB.H264-4FuN.mp4
Format : MPEG-4
Format profile : Base Media
File size : 1.23 GiB
Duration : 59 min 28 s
Overall bit rate mode : Variable
Overall bit rate : 2 966 kb/s
Writing application : Lavf57.25.100

Video
ID : 1
Format : AVC
Format/Info : Advanced Video Codec
Codec ID/Info : Advanced Video Coding
Duration : 59 min 28 s
Bit rate mode : Variable
Bit rate : 2 864 kb/s
Maximum bit rate : 3 625 kb/s
Width : 960 pixels
Height : 720 pixels
Display aspect ratio : 16:9
Frame rate mode : Constant
Frame rate : 29.970 (30000/1001) FPS
Color space : YUV
Chroma subsampling : 4:2:0
Bit depth : 8 bits
Scan type : Progressive
Bits/(Pixel*Frame) : 0.138
Stream size : 1.19 GiB (97%)

Audio
ID : 2
Format : AAC
Format/Info : Advanced Audio Codec
Format profile : LC
Codec ID : mp4a-40-2
Duration : 59 min 28 s
Bit rate mode : Variable
Bit rate : 93.5 kb/s
Maximum bit rate : 96.0 kb/s
Channel(s) : 2 channels
Channel positions : Front: L R
Sampling rate : 48.0 kHz
Frame rate : 46.875 FPS (1024 SPF)
Compression mode : Lossy
Stream size : 39.8 MiB (3%)
 

 

 

Watch WWE NXT UK 2018 10 17 720p WEB 4FuN

 

 

 

 

Watch online

 

 

Waiting finish converting video

 

 

Server 1

 

 

 

 

 

 

 

 

 

 

 

 

 

 

 

Server 2

 

 

 

 

 


 

 

 

 

 

 

Uploaded By Site DX-TV.com

 

 

 

open rar file to see this password

 

 

 

 

The password : DX-TV.com

 

 

 

 

Uploaded.net + rapidgator.net

 

 

 

 

 

 
http://shrt10.com/vDJF

 

 

 
http://shrt10.com/gqk5VK
 

 

 

 

 

Watch WWE NXT UK 2018 10 17 720p WEB 4FuN