Watch WWE NXT Take Over War Games 2017 Pre Show WEB HEEL /720p

Watch WWE NXT Take Over War Games 2017 Pre Show WEB HEEL /720p

 

 

 

 

 

 

wwe

 

 

 

 

 

 

 

 

 

Complete name : WWE.NXT.TakeOver.WarGames.Pre.Show.WEB.h264-HEEL.mp4
Format : MPEG-4
Format profile : Base Media
Codec ID : isom
File size : 384 MiB
Duration : 29mn 41s
Overall bit rate : 1 807 Kbps
Writing application : Lavf57.20.100

Video
ID : 1
Format : AVC
Duration : 29mn 41s
Bit rate mode : Constant
Bit rate : 1 704 Kbps
Width : 896 pixels
Height : 504 pixels
Display aspect ratio : 16:9
Frame rate mode : Constant
Frame rate : 29.970 fps
Color space : YUV
Chroma subsampling : 4:2:0
Bit depth : 8 bits
Scan type : Progressive
Bits/(Pixel*Frame) : 0.126
Stream size : 362 MiB (94%)

Audio
ID : 2
Format : AAC
Format profile : LC
Codec ID : 40
Duration : 29mn 41s
Bit rate mode : Variable
Bit rate : 93.5 Kbps
Maximum bit rate : 96.8 Kbps
Channel(s) : 2 channels
Channel positions : Front: L R
Sampling rate : 48.0 KHz
Compression mode : Lossy
Stream size : 19.9 MiB (5%)
Language : English

Text

 

 

 

 

 

 
Complete name : WWE.NXT.TakeOver.WarGames.Pre.Show.720p.WEB.h264-HEEL.mp4
Format : MPEG-4
Format profile : Base Media
Codec ID : isom
File size : 957 MiB
Duration : 29mn 41s
Overall bit rate : 4 508 Kbps
Writing application : Lavf57.20.100

Video
ID : 1
Format : AVC
Duration : 29mn 41s
Bit rate mode : Constant
Bit rate : 4 372 Kbps
Width : 1 280 pixels
Height : 720 pixels
Display aspect ratio : 16:9
Frame rate mode : Constant
Frame rate : 29.970 fps
Color space : YUV
Chroma subsampling : 4:2:0
Bit depth : 8 bits
Scan type : Progressive
Bits/(Pixel*Frame) : 0.158
Stream size : 929 MiB (97%)

Audio
ID : 2
Format : AAC
Format profile : LC
Codec ID : 40
Duration : 29mn 41s
Bit rate mode : Variable
Bit rate : 125 Kbps
Maximum bit rate : 136 Kbps
Channel(s) : 2 channels
Channel positions : Front: L R
Sampling rate : 48.0 KHz
Compression mode : Lossy
Stream size : 26.6 MiB (3%)
Language : English

 

 

 

 

 

 

 

 

Watch WWE NXT Take Over War Games 2017 Pre Show WEB HEEL /720p

 

 

 

 

Watch online

 

 

Waiting finish converting video

 

 

Server 1

 

 

 

 

 

 

 

 

 

 

 

 

 

 

 

 

 

 

Srver 2

 

 

 

 

 

 

 

 

 


 

 

Server 3

 

 

 

 

 

 

 

 

 

 


 

 

 

 

Uploaded By Site DX-TV.com

 

 

 

open rar file to see this password

 

 

 

 

The password is : DX-TV.com

 

 

 

 

400p+720p

 

 

 

 

Uploaded.net

 

 

 

 

 

 

http://shrt10.com/fgrbRXlr

 

 

 

 

 

 

http://shrt10.com/PeyHB

 

 

 

 

 

 

 

 

rapidgator.net

 

 

 

 

 

 

http://shrt10.com/4BWi

 

 

 

 

 

http://shrt10.com/OsmDBI

 

 

 

 

 

Watch WWE NXT Take Over War Games 2017 Pre Show WEB HEEL /720p