Watch WWE NXT TakeOver Brooklyn IV 2018 08 18 WEB HEEL

Watch WWE NXT TakeOver Brooklyn IV 2018 08 18 WEB HEEL

 

 

 


 

 

 

dx-tv.com

 

 

 

 

 

 

 

Complete name : WWE.NXT.TakeOver.Brooklyn.IV.WEB.h264-HEEL.mp4
Format : MPEG-4
Format profile : Base Media
File size : 2.00 GiB
Duration : 2 h 38 min
Overall bit rate mode : Variable
Overall bit rate : 1 805 kb/s
Writing application : Lavf58.2.103

Video
ID : 1
Format : AVC
Format/Info : Advanced Video Codec
Codec ID/Info : Advanced Video Coding
Duration : 2 h 38 min
Duration_FirstFrame : 19 ms
Bit rate mode : Constant
Bit rate : 1 704 kb/s
Width : 896 pixels
Height : 504 pixels
Display aspect ratio : 16:9
Frame rate mode : Constant
Frame rate : 29.970 (30000/1001) FPS
Color space : YUV
Chroma subsampling : 4:2:0
Bit depth : 8 bits
Scan type : Progressive
Bits/(Pixel*Frame) : 0.126
Stream size : 1.89 GiB (94%)

Audio
ID : 2
Format : AAC
Format/Info : Advanced Audio Codec
Format profile : LC
Codec ID : mp4a-40-2
Duration : 2 h 38 min
Bit rate mode : Variable
Bit rate : 93.5 kb/s
Maximum bit rate : 97.1 kb/s
Channel(s) : 2 channels
Channel positions : Front: L R
Sampling rate : 48.0 kHz
Frame rate : 46.875 FPS (1024 SPF)
Compression mode : Lossy
Stream size : 106 MiB (5%)
Language : English
Default : Yes
Alternate group : 1

 

 

 

Watch WWE NXT TakeOver Brooklyn IV 2018 08 18 WEB HEEL

 

 

 

Watch online

 

 

Waiting finish converting video

 

 

Server 1

 

 

 

 

 

 

 

 

 

 

 

 

 

 

 

 

 

 

 

 

Server 2

 

 

 

 

 

 

 


 

 

 

 

 

 

Uploaded By Site DX-TV.com

 

 

 

open rar file to see this password

 

 

 

 

The password : DX-TV.com

 

 

 

 

Uploaded.net + rapidgator.net

 

 

 

 

 

 

http://shrt10.com/gqfsPzQ9

 

 

 

 

 

http://shrt10.com/MB6u2ux

 

 

 

 

 

 

Watch WWE NXT TakeOver Brooklyn IV 2018 08 18 WEB HEEL