Watch WWE NXT Online 2020 10 07 Free

WWE NXT Online 2020 10 07 HDTV Star DX-TV

 

NXT Online

 

 WWE NXT

 

Watch WWE NXT Online 2020 10 07 Free

 

Ember Moon returns to kick off NXT

NXT Free Live Stream

The NXT Universe, and NXT Women’s Champion Io Shirai in particular, received a major shock at TakeOver 31.

when Ember Moon revealed herself as the individual behind the mysterious vignettes that have aired in recent weeks.

Riding into TakeOver on a motorcycle, Moon made her presence felt inside the Capitol Wrestling Center.

and stared down The Genius of the Sky after Shirai’s successful defense against Candice LeRae.

Watch WWE NXT Online

any time making her intentions known as she’s set to kick off this week’s episode of NXT.

What will Moon have to say about her stunning NXT homecoming and plans for the future? Find out Wednesday on NXT at 8/7 C on USA.

 

 

Complete name : WWE.NXT.2020.10.07.HDTV.x264-Star.mp4
Format : MPEG-4
Format profile : Base Media
Codec ID : mp42
File size : 909 MiB
Duration : 1 h 26 min
Overall bit rate : 1 474 kb/s

Watch WWE NXT Online

Video
ID : 1
Format : AVC
Duration : 1 h 26 min
Bit rate : 1 300 kb/s
Width : 720 pixels
Height : 480 pixels
Display aspect ratio : 16:9
Original display aspect rat : 16:9
Frame rate mode : Constant
rate : 29.970 (30000/1001) FPS
Standard : NTSC
Color space : YUV
Chroma subsampling : 4:2:0
Bit depth : 8 bits
Scan type : Progressive
Bits/(Pixel*Frame) : 0.126
Stream size : 803 MiB (88%)
Color range : Limited
Color primaries : BT.709
Transfer characteristics : BT.709
Matrix coefficients : BT.709
Codec configuration box : avcC

Watch WWE NXT Online

Audio
ID : 2
Format : AAC LC
Format/Info : Advanced Audio
Codec ID : mp4a-40-2
Duration : 1 h 26 min
Bit rate mode : Constant
Bit rate : 162 kb/s
Channel(s) : 2 channels
Channel layout : L R
Sampling rate : 48.0 kHz
Frame rate : 46.875 FPS (1024 SPF)
Compression mode : Lossy
Stream size : 99.8 MiB (11%)
Title : Stereo
Default : Yes
Alternate group : 1

 

Watch WWE NXT Online 2020.10 07 Free

 

 

Watch online

 

Server 1

 

 

 

 

watch now

 

 

 

 

Server-2

 

NXT Online

 

watch now

 

 

 

 

Server-3

 

 

 

WWE NXT Online

 

 

 

 

Uploaded By Site DX-TV.com

 

 

 

 

Download Free Links with normal and high Speed [ more 14 hosts ]  

 

 

 

 

http://shrt10.com/NPSUbyEN
http://shrt10.com/nZ0huN
http://shrt10.com/fHJatzeu
http://shrt10.com/PLo14L
http://shrt10.com/wLHGbi4qo
http://shrt10.com/NhuUt3Ned
http://shrt10.com/iVdTIwR
http://shrt10.com/FCFtVzWe
http://shrt10.com/MPDDCvfom
http://shrt10.com/FlggK21i
http://shrt10.com/YTQAO
http://shrt10.com/6g0UK3
http://shrt10.com/PaXdoH30y

 

 

 

Download Links with premium High Speed   

 

 

 

nitroflare.com

 

 

 

rapidgator.net

 

 

 

uploaded.net

 

 

 

uploadgig.com

 

 

 

 

 

dx-tv.com

 

urlfree.net

Leave a Reply

Your email address will not be published. Required fields are marked *

This site uses Akismet to reduce spam. Learn how your comment data is processed.