Watch WWE NXT Full Show Online 2020 09 30

Watch WWE NXT 2020 09 30 HDTV NWCHD DX-TV

 

WWE NXT Full Show Online

 

 WWE NXT Full Show Online
 


 

 

Watch WWE NXT Full Show Online 2020 09 30

 

Shotzi Blackheart def. Dakota Kai

Dakota Kai personally requested this one-on-one bout after being eliminated by Shotzi Blackheart in last week’s NXT Women’s Title No. 1 Contender’s Battle Royal. Both competitors were shaken up after Blackheart hit a high-risk, modified Sliced Bread No. 2 on the apron, but Raquel González tried to grab the advantage for Kai by getting involved moments later. Unfortunately for her, Rhea Ripley arrived to neutralize Kai’s enforcer. Meanwhile, Blackheart evaded Kai’s facewash kick attempt and rolled her up for an impressive victory. 

WWE NXT Full Show Online

Complete name : WWE.NXT.2020.09.30.HDTV.x264-NWCHD.mp4
Format : MPEG-4
Format profile : Base Media
Codec ID : isom
File size : 1 023 MiB
Duration : 1 h 30 min
Overall bit rate : 1 577 kb/s
Writing application : Lavf58.

WWE NXT Full Show Online

Video
ID : 1
Format : AVC
Format/Info : Advanced
Duration : 1 h 30 min
Bit rate : 1 400 kb/s
Width : 704 pixels
Height : 400 pixels
Display aspect ratio : 16:9
aspect rat : 16:9
Frame rate mode : Variable
Frame rate : 29.970 FPS
Color space : YUV
Chroma subsampling : 4:2:0
Bit depth : 8 bits
Scan type : Progressive
Bits/(Pixel*Frame) : 0.166
Stream size : 893 MiB (87%)
Color primaries : BT.709
Transfer characteristics : BT.709
Matrix coefficients : BT.709
Codec configuration box : avcC

WWE NXT Full Show Online

Audio
ID : 2
Format : AAC LC
Format/Info : Advanced Audio
Codec ID : mp4a-40-2
Duration : 1 h 30 min
Bit rate mode : Constant
Bit rate : 192 kb/s
Channel(s) : 2 channels
Channel layout : L R
Sampling rate : 48.0 kHz
Frame rate : 46.875 FPS (1024 SPF)
Compression mode : Lossy
Stream size : 125 MiB (12%)
Title : Stereo
Language : English
Default : Yes
Alternate group : 1

 

 

 Watch WWE NXT Full Show Online 2020 09 30

 

 

 

 

Watch online

 

 

 

 

 

Server 1

 

 

 

 

watch now

 

 

 

 

Server-2

 

 

 

WWE NXT Full Show Online

 

 

 

 

Server-3

 

 

 

WWE NXT Full Show Online

 

 

 

 

Uploaded By Site DX-TV.com

 

 

 

 

Download Free Links with normal and high Speed [ more 15 hosts ]  

 

 

 

 

http://shrt10.com/DVVIImk8
http://shrt10.com/ml04s7lFr
http://shrt10.com/oPKjer
http://shrt10.com/FvtU9
http://shrt10.com/1SI2Ag
http://shrt10.com/tg6kyO7E
http://shrt10.com/r37lfcvG
http://shrt10.com/eXV0IYe
http://shrt10.com/85fq7e
http://shrt10.com/W6wKw5Y
http://shrt10.com/znTzCceB
http://shrt10.com/Mv2O1WkW
http://shrt10.com/99Ri8h2

 

 

 

Download Links with premium High Speed   

 

 

 

 

nitroflare.com

 

 

 

rapidgator.net

 

 

 

uploaded.net

 

 

 

uploadgig.com

 

 

 

 

 

dx-tv.com

 

urlfree.net

Leave a Reply

Your email address will not be published. Required fields are marked *

This site uses Akismet to reduce spam. Learn how your comment data is processed.