Watch WWE NXT Free Online 2020 DEC 23 720p DX-TV

Watch WWE NXT Free Online 2020 DEC 23 720p DX-TV

Watch WWE NXT Free Online

WWE NXT Free Live 2020 NOV 04

 

Download Links with premium High Speed   

 

nitroflare.com

http://shrt10.com/MYreX1x
http://shrt10.com/3mN6roZ

 

 

rapidgator.net

http://shrt10.com/LrNdGYYo
http://shrt10.com/kCcqw7ZYe

 

 

uploaded.net

http://shrt10.com/Go1ie0g
http://shrt10.com/3veMLeFM

 

 

uploadgig.com

http://shrt10.com/hC7B3
http://shrt10.com/vbODB7b

 

 

Watch online

 

Server 1

 

 

 

 

Watch WWE NXT Free Online

 

 

 

 

Server-2

 

 

 

 

watch now

 

 

Uploaded By Site DX-TV.com

 

 

 

[su_expand more_text=”Show More Info” less_text=”Close all Info” height=”50″ text_color=”#000000″ link_color=”#e25f8b” link_style=”button” more_icon=”icon: arrow-down” less_icon=”icon: arrow-up”]

Complete name : WWE.NXT.2020.12.23.720p.HDTV.x264-NWCHD.mp4
Format : MPEG-4
Format profile : Base Media
Codec ID : isom
File size : 3.18 GiB
Duration : 1 h 37 min
Overall bit rate : 4 654 kb/s
Writing application : Lavf58.51.101

Watch WWE NXT Free Online

Video
ID : 1
Format : AVC
Duration : 1 h 37 min
Bit rate : 4 500 kb/s
Width : 1 280 pixels
Height : 720 pixels
Display aspect ratio : 16:9
Frame rate mode : Variable
Frame rate : 29.970 (30000/1001) FPS
Minimum frame rate : 29.211 FPS
Maximum frame rate : 29.970 FPS
Color space : YUV
Chroma subsampling : 4:2:0
Bit depth : 8 bits
Scan type : Progressive
Bits/(Pixel*Frame) : 0.163
Stream size : 3.05 GiB (96%)
Color range : Limited
Color primaries : BT.709
Transfer characteristics : BT.709
Matrix coefficients : BT.709
Codec configuration box : avc

Watch WWE NXT Free Online

Audio
ID : 2
Format : AAC LC
Format/Info : Advanced Audio
Codec ID : mp4a-40-2
Duration : 1 h 37 min
Bit rate mode : Constant
Bit rate : 192 kb/s
Channel(s) : 2 channels
Channel layout : L R
Sampling rate : 48.0 kHz
Frame rate : 46.875 FPS (1024 SPF)
Compression mode : Lossy
Stream size : 135 MiB (4%)
Title : Stereo
Language : English
Default : Yes
Alternate group : 1

Complete name : WWE.NXT.2020.12.23.HDTV.x264-NWCHD.mp4
Format : MPEG-4
Format profile : Base Media
Codec ID : isom
File size : 1.08 GiB
Duration : 1 h 37 min
Overall bit rate : 1 583 kb/s
Writing application : Lavf58.27.103

WWE NXT Free Online

Video
ID : 1
Format : AVC
Duration : 1 h 37 min
Bit rate : 1 400 kb/s
Width : 704 pixels
Height : 400 pixels
Display aspect ratio : 16:9
Frame rate mode : Variable
Frame rate : 29.970 (30000/1001) FPS
Minimum frame rate : 29.211 FPS
Maximum frame rate : 29.970 FPS
Color space : YUV
Chroma subsampling : 4:2:0
Bit depth : 8 bits
Scan type : Progressive
Bits/(Pixel*Frame) : 0.166
Stream size : 968 MiB (87%)
Color range : Limited
Color primaries : BT.709
Transfer characteristics : BT.709
Matrix coefficients : BT.709
Codec configuration box : avc

Watch WWE NXT Free  

Audio
ID : 2
Format : AAC LC
Format/Info : Advanced Audio
Codec ID : mp4a-40-2
Duration : 1 h 37 min
Bit rate mode : Constant
Bit rate : 192 kb/s
Channel(s) : 2 channels
Channel layout : L R
Sampling rate : 48.0 kHz
Frame rate : 46.875 FPS (1024 SPF)
Compression mode : Lossy
Stream size : 135 MiB (12%)
Title : Stereo
Language : English
Default : Yes
Alternate group : 1

 WWE NXT Free Online

[/su_expand]

 

https://dx-tv.com/

You May Also Like

Leave a Reply

Your email address will not be published. Required fields are marked *

This site uses Akismet to reduce spam. Learn how your comment data is processed.