Watch WWE NXT 2021 01 06 Full Show Online 1080p DX-TV

Watch WWE NXT 2021 01 06 Full Show Online 1080p DX-TV

Watch WWE NXT 2021

 Watch WWE NXT 2021

 

Download Links with premium High Speed   

 

 

nitroflare.com

http://shrt10.com/TB7jthvUH
http://shrt10.com/0FFcD2Bz

 

 

rapidgator.net

http://shrt10.com/Ibys2CSSw
http://shrt10.com/Q6ZOlvii

 

 

uploaded.net

http://shrt10.com/8jz83D20q

 

 

uploadgig.com

http://shrt10.com/gLRfqPEx
http://shrt10.com/13jywFIgV

 

Watch WWE NXT online

 

Server 1

 

 

 

 

Watch WWE NXT 2021

 

 

 

 

Server-2

 

 

 

 

watch now

 

 

Uploaded By Site DX-TV.com

 

Complete name : WWE.NXT.2021.01.06.USAN.1080p.WEB.h264-HEEL.mkv
Format : Matroska
Format version : Version 4
File size : 4.99 GiB
Duration : 1 h 57 min
Overall bit rate mode : Variable
Overall bit rate : 6 091 kb/s

Watch WWE NXT 2021

Video
ID : 1
Format : AVC
Codec ID : V_MPEG4/ISO/AVC
Duration : 1 h 57 min
Bit rate mode : Variable
Bit rate : 5 895 kb/s
Maximum bit rate : 8 000 kb/s
Width : 1 920 pixels
Height : 1 080 pixels
Display aspect ratio : 16:9
Frame rate mode : Constant
Frame rate : 59.940 (60000/1001) FPS
Standard : Component
Color space : YUV
Chroma subsampling : 4:2:0
Bit depth : 8 bits
Scan type : Progressive
Bits/(Pixel*Frame) : 0.047
Stream size : 4.83 GiB (97%)
Default : Yes
Forced : No
Color range : Limited
Color primaries : BT.709
Transfer characteristics : BT.709
Matrix coefficients : BT.709

Watch WWE NXT  

Audio
ID : 2
Format : AC-3
Format/Info : Audio Coding 3
Commercial name : Dolby Digital
Codec ID : A_AC3
Duration : 1 h 57 min
Bit rate mode : Constant
Bit rate : 192 kb/s
Channel(s) : 2 channels
Channel layout : L R
Sampling rate : 48.0 kHz
Frame rate : 31.250 FPS (1536 SPF)
Compression mode : Lossy
Delay relative to video : -29 ms
Stream size : 161 MiB (3%)
Language : English
Service kind : Complete Main
Default : Yes
Forced : No

Complete name : WWE.NXT.2021.01.06.USAN.WEB.h264-HEEL.mp4
Format : MPEG-4
Format profile : Base Media
Codec ID : isom
File size : 1.15 GiB
Duration : 1 h 57 min
Overall bit rate mode : Variable
Overall bit rate : 1 397 kb/s
Law rating : TV-PG (V)
Writing application : Lavf58.63.100

WWE NXT 2021

Video
ID : 1
Format : AVC
Format/Info : Advanced Video
Codec ID : avc1
Codec ID/Info : Advanced Video
Duration : 1 h 57 min
Bit rate mode : Variable
Bit rate : 1 196 kb/s
Maximum bit rate : 1 300 kb/s
Width : 960 pixels
Height : 540 pixels
Display aspect ratio : 16:9
Frame rate mode : Variable
Frame rate : 29.970 (30000/1001) FPS
Minimum frame rate : 29.528 FPS
Maximum frame rate : 30.141 FPS
Standard : Component
Color space : YUV
Chroma subsampling : 4:2:0
Bit depth : 8 bits
Scan type : Progressive
Bits/(Pixel*Frame) : 0.077
Stream size : 1 005 MiB (86%)
Color range : Limited
Color primaries : BT.709
Transfer characteristics : BT.709
Matrix coefficients : BT.709
mdhd_Duration : 7044737
Codec configuration box : avcC

Audio
ID : 2
Format : AAC LC
Format/Info : Advanced Audio
Codec ID : mp4a-40-2
Duration : 1 h 57 min
Bit rate mode : Constant
Bit rate : 192 kb/s
Channel(s) : 2 channels
Channel layout : L R
Sampling rate : 48.0 kHz
Frame rate : 46.875 FPS (1024 SPF)
Compression mode : Lossy
Stream size : 162 MiB (14%)
Language : English
Default : Yes
Alternate group : 1

 

 

https://dx-tv.com/

Leave a Reply

Your email address will not be published. Required fields are marked *

This site uses Akismet to reduce spam. Learn how your comment data is processed.