Watch WWE NXT 2020 01 15 720p DX-TV

Watch WWE NXT 2020 01 15 720p DX-TV

 

 

WWE Raw

 

 

 

 

dx-tv.com

 

 

 

 

Watch WWE NXT 2020 01 15 720p DX-TV

 

 

 

 

 

Complete name : WWE.NXT.2020.01.15.USAN.720p.WEB.h264-HEEL.mp4
Format : MPEG-4
Format profile : Base Media
Codec ID : isom (isom/iso2/avc1/mp41)
File size : 5.20 GiB
Duration : 1 h 43 min
Overall bit rate mode : Constant
Overall bit rate : 7 168 kb/s
Law rating : TV-PG (V)
Writing application : Lavf58.32.104

Video
ID : 1
Format : AVC
Duration : 1 h 43 min
Bit rate mode : Constant
Bit rate : 7 000 kb/s
Width : 1 280 pixels
Height : 720 pixels
Display aspect ratio : 16:9
Frame rate mode : Variable
Frame rate : 59.940 (60000/1001) FPS
Minimum frame rate : 28.382 FPS
Maximum frame rate : 60.811 FPS
Color space : YUV
Chroma subsampling : 4:2:0
Bit depth : 8 bits
Scan type : Progressive
Bits/(Pixel*Frame) : 0.127
Stream size : 5.09 GiB (98%)
Codec configuration box : avcC

Audio
ID : 2
Format : AAC LC
Format/Info : Advanced Audio Codec Low Complexity
Codec ID : mp4a-40-2
Duration : 1 h 43 min
Bit rate mode : Constant
Bit rate : 126 kb/s
Channel(s) : 2 channels
Channel layout : L R
Sampling rate : 44.1 kHz
Frame rate : 43.066 FPS (1024 SPF)
Compression mode : Lossy
Stream size : 93.3 MiB (2%)
Default : Yes
Alternate group : 1

 

 

 

 

 

 

Watch online

 

 

Server 1

 

 

 

 

watch now

 

 

 

Watch WWE NXT 2020 01 15 720p DX-TV

 

 

 

Uploaded By Site DX-TV.com

 

 

 

 

Download VIP Members FTP Link and Free Links 

 

 

Limited Time will be removed after 30 days if you need available again pm email admin

 

This section is only available to registered users.

1fichier.com 

 

 

earn4files.com

 

 

dl.free.fr

 

 

 

 

Download with premium account Links 

 

 

nitroflare.com

 

 

rapidgator.net

 

 

 

Categories

ADS



Archives