Watch WWE NXT 2020 01 15 720 Star

Watch WWE NXT 2020 01 15 720 Star DX-TV

 

 

WWE nxt

 

 

 

 

dx-tv.com

 

 

 

 

Watch WWE NXT 2020 01 15 720 Star

 

 

 

 

 

Complete name : WWE.NXT.2020.01.15.720p.HDTV.x264-Star.mkv
Format : Matroska
Format version : Version 4
File size : 3.92 GiB
Duration : 1 h 38 min
Overall bit rate : 5 692 kb/s

Video
ID : 1
Format : AVC
Codec ID : V_MPEG4/ISO/AVC
Duration : 1 h 38 min
Bit rate : 5 500 kb/s
Width : 1 280 pixels
Height : 720 pixels
Display aspect ratio : 16:9
Frame rate mode : Constant
Frame rate : 25.000 FPS
Color space : YUV
Chroma subsampling : 4:2:0
Bit depth : 8 bits
Scan type : Progressive
Bits/(Pixel*Frame) : 0.239
Stream size : 3.71 GiB (95%)
Color range : Limited
Color primaries : BT.709
Transfer characteristics : BT.709
Matrix coefficients : BT.709

Audio
ID : 2
Format : AC-3
Format/Info : Audio Coding 3
Commercial name : Dolby Digital
Codec ID : A_AC3
Duration : 1 h 38 min
Bit rate mode : Constant
Bit rate : 192 kb/s
Channel(s) : 2 channels
Channel layout : L R
Sampling rate : 48.0 kHz
Frame rate : 31.250 FPS (1536 SPF)
Compression mode : Lossy
Delay relative to video : -5 ms
Stream size : 135 MiB (3%)
Title : Stereo
Language : any
Service kind : Complete Main
Default : Yes
Forced : No

 

 

 

Watch online

 

 

Server 1

 

 

 

 

 

watch now

 

 

 

Watch WWE NXT 2020 01 15 720 Star

 

 

 

Uploaded By Site DX-TV.com

 

 

 

 

Download VIP Members FTP Link and Free Links 

 

 

Limited Time will be removed after 30 days if you need available again pm email admin

 

[member]
 

FTP Link Download high speed

 

[/member]

1fichier.com 

 

 

 

earn4files.com

 

 

dl.free.fr

 

 

 

Download with premium account Links 

 

 

nitroflare.com

 

 

rapidgator.net

 

 

uploaded.net

 

 

 

 

 

 

 

 

 

You May Also Like