Watch WWE NXT 2019 05 08 720p WEB HEEL free full show online

 

 

 

 


 

 

 

dx-tv.com

 

 

 

 

Complete name : WWE.NXT.2019.05.08.720p.WEB.h264-HEEL.mp4
Format : MPEG-4
Format profile : Base Media
Codec ID : isom (isom/iso2/avc1/mp41)
File size : 1.54 GiB
Duration : 49 min 5 s
Overall bit rate mode : Variable
Overall bit rate : 4 502 kb/s
Writing application : Lavf58.26.101

Video
ID : 1
Format : AVC
Format/Info : Advanced Video Codec
Codec ID : avc1
Codec ID/Info : Advanced Video Coding
Duration : 49 min 5 s
Duration_FirstFrame : 15 ms
Bit rate mode : Constant
Bit rate : 4 372 kb/s
Width : 1 280 pixels
Height : 720 pixels
Display aspect ratio : 16:9
Frame rate mode : Constant
Frame rate : 29.970 (30000/1001) FPS
Color space : YUV
Chroma subsampling : 4:2:0
Bit depth : 8 bits
Scan type : Progressive
Bits/(Pixel*Frame) : 0.158
Stream size : 1.50 GiB (97%)
Codec configuration box : avcC

Audio
ID : 2
Format : AAC LC
Format/Info : Advanced Audio Codec Low Complexity
Codec ID : mp4a-40-2
Duration : 49 min 5 s
Bit rate mode : Variable
Bit rate : 125 kb/s
Maximum bit rate : 134 kb/s
Channel(s) : 2 channels
Channel layout : L R
Sampling rate : 48.0 kHz
Frame rate : 46.875 FPS (1024 SPF)
Compression mode : Lossy
Stream size : 44.0 MiB (3%)
Language : English
Default : Yes
Alternate group : 1

 

 

 

 

 


 

 

 

Watch WWE NXT 2019 05 08 720p WEB HEEL free full show online

 

 

 

 

Watch online

 

 

Waiting finish converting video

 

 

Server 1

 

 

 

 

 

 

 

 


 

 


 

 

 

Uploaded By Site DX-TV.com

 

 

 

open rar file to see this password

 

 

 

 

The password : DX-TV.com

 

 

 

 

Uploaded.net + rapidgator.net + katfile.com + bitster.cz

 

 

 

 


 

 

https://shrt10.com/nougAlC
 

 
https://shrt10.com/ORXM
 

 
https://shrt10.com/8KHoQ
 

 
https://shrt10.com/TWZ5sa
 

 
https://shrt10.com/cC7ENay

 

 

 

 

Watch WWE NXT 2019 05 08 720p WEB HEEL free full show online