Watch WWE NXT 2018 09 12 WWE Network HDTV Star mp4

Watch WWE NXT 2018 09 12 WWE Network HDTV Star mp4

 

 

 

 


 

 

dx-tv.com

 

 

 

 

 

 

 

Complete name : WWE.NXT.2018.09.12.WWE.Network.HDTV.x264-Star.mp4
Format : MPEG-4
File size : 548 MiB
Duration : 51 min 55 s
Overall bit rate mode : Variable
Overall bit rate : 1 476 kb/s
Encoded date : UTC 2018-09-13 01:50:48
Tagged date : UTC 2018-09-13 01:50:48

Video
ID : 1
Format : AVC
Format/Info : Advanced Video Codec
Codec ID/Info : Advanced Video Coding
Duration : 51 min 55 s
Bit rate : 1 300 kb/s
Width : 712 pixels
Height : 400 pixels
Display aspect ratio : 16:9
Frame rate mode : Constant
Frame rate : 29.970
Color space : YUV
Chroma subsampling : 4:2:0
Bit depth : 8 bits
Scan type : Progressive
Bits/(Pixel*Frame) : 0.152
Stream size : 486 MiB (89%)
Encoded date : UTC 2018-09-13 01:50:48
Tagged date : UTC 2018-09-13 01:50:48
Color range : Limited
Color primaries : BT.709
Transfer characteristics : BT.709
Matrix coefficients : BT.709

Audio
ID : 2
Format : AAC
Format/Info : Advanced Audio Codec
Format profile : LC
Codec ID : mp4a-40-2
Duration : 51 min 55 s
Bit rate mode : Variable
Bit rate : 160 kb/s
Channel(s) : 2 channels
Channel positions : Front: L R
Sampling rate : 48.0 kHz
Frame rate : 46.875 FPS
Compression mode : Lossy
Stream size : 59.4 MiB (11%)
Title : Stereo / Stereo
Default : Yes
Alternate group : 1
Encoded date : UTC 2018-09-13 01:50:48
Tagged date : UTC 2018-09-13 01:50:48

 

 

 

 

Watch WWE NXT 2018 09 12 WWE Network HDTV Star mp4

 

 

 

 

Watch online

 

 

Waiting finish converting video

 

 

Server 1

 

 

 

 

 

 

 

 

 

 

 

 

 

 

 

 

 

 

 

 

Server 2

 

 

 

 

 

 

 

 


 

 

 

 

Uploaded By Site DX-TV.com

 

 

 

open rar file to see this password

 

 

 

 

The password : DX-TV.com

 

 

 

 

Uploaded.net + rapidgator.net

 

 

 

 

 

 

 
http://shrt10.com/m4oi9y3I

 

 

 

 

 

 
http://shrt10.com/MspzeYAA
 

 

 

 

 

Watch WWE NXT 2018 09 12 WWE Network HDTV Star mp4

 

Leave a Reply

This site uses Akismet to reduce spam. Learn how your comment data is processed.

Support HVIPS

Please Disable Ad-Block To View This site. just help us to continue this work