Watch WWE NXT 2018 08 29 WEB HEEL /720p

Watch WWE NXT 2018 08 29 WEB HEEL /720p

 

 

 

 


 

 

 

dx-tv.com

 

 

 

 

 

Complete name : WWE.NXT.2018.08.29.WEB.h264-HEEL.mp4
Format : MPEG-4
Format profile : Base Media
File size : 763 MiB
Duration : 59 min 8 s
Overall bit rate mode : Constant
Overall bit rate : 1 804 kb/s
Writing application : Lavf58.2.103

Video
ID : 1
Format : AVC
Format/Info : Advanced Video Codec
Codec ID/Info : Advanced Video Coding
Duration : 59 min 8 s
Duration_FirstFrame : 11 ms
Bit rate mode : Constant
Bit rate : 1 704 kb/s
Width : 896 pixels
Height : 504 pixels
Display aspect ratio : 16:9
Frame rate mode : Constant
Frame rate : 29.970
Color space : YUV
Chroma subsampling : 4:2:0
Bit depth : 8 bits
Scan type : Progressive
Bits/(Pixel*Frame) : 0.126
Stream size : 721 MiB (94%)

Audio
ID : 2
Format : AAC
Format/Info : Advanced Audio Codec
Format profile : LC
Codec ID : mp4a-40-2
Duration : 59 min 8 s
Bit rate mode : Constant
Bit rate : 93.5 kb/s
Channel(s) : 2 channels
Channel positions : Front: L R
Sampling rate : 48.0 kHz
Frame rate : 46.875 FPS
Compression mode : Lossy
Stream size : 39.5 MiB (5%)
Language : English
Default : Yes
 

 

 

 

 

 

title: WWE.NXT.2018.08.29.720p.WEB.h264-HEEL
Released: 2018.08.29
Source: WWE Network
Resolution: 1280 x 720 @ 29.970 FPS
Video: H.264 @ 4500 kbps
Audio: AAC @ 128 kbps
Size: 1.86 GB
Runtime: 59mn 08sec
 

 

 

 

Watch WWE NXT 2018 08 29 WEB HEEL /720p

 

 

 

 

Watch online

 

 

Waiting finish converting video

 

 

Server 1

 

 

 

 

 

 

 

 

 

 

 

 

 

 

Server 2

 

 

 

 

 

 

 


 

 

 

 

 

 

Uploaded By Site DX-TV.com

 

 

 

open rar file to see this password

 

 

 

 

The password : DX-TV.com

 

 

 

 

 

 

Uploaded.net + rapidgator.net

 

 

 

 

 

 

http://shrt10.com/su3a
 

 

 

http://shrt10.com/Hlgj9UG
 

 

 

http://shrt10.com/b6TWeD

 

 

 
http://shrt10.com/bvdxJJ
 

 

 

 

 

Watch WWE NXT 2018 08 29 WEB HEEL /720p

Tags: , , , , , , , , ,

Leave a Reply

This site uses Akismet to reduce spam. Learn how your comment data is processed.

Support HVIPS

Please Disable Ad-Block To View This site. just help us to continue this work